Ссылка на приватное зеркало всего за 1$. Внимание количество ограничено!!!

iTunes

iTunes

iTunes

1

iTunes

iTunes

iTunes

iTunes

iTunes

30
pack

$ от Little Big

ВАЖНО

!!Акция!!

Alien_RageХит недели

RePack

Resident Evil 21

ИГРА 18+

pack

RePack

jed

!!Акция!!

Alien_Rage

RePack

fifa19

RePack

Assassins Creed: Odyssey

RePack

NEED FOR SPEED™ PAYBACK

4 сезон

9 сезон

Бесстыжие 9 сезон

Все сериалы

все сериалы на PB.wtf

RePack

FAR CRY 5
  

Огонь Кристиана Лубутена в 3Д / FEU: Crazy Horse Paris 3D (Бруно Халлин / Bruno Hullin / KaBo, Crazy Horse) [2012 г., Erotic/Show, 3D, BDRip 1080p, Оригинал] Half SideBySide pb.wtf

Огонь Кристиана Лубутена в 3Д через торрент pb.wtf

Размер: 7.23 GB | Добавлен: 6 лет 11 мес. назад | Торрент скачан:252 раза
Скачать  

21-06-2013 09:17 Огонь Кристиана Лубутена в 3Д Скачать торрент  

FEU: Crazy Horse Paris 3D
Огонь Кристиана Лубутена в 3Д


Год выпуска: 2012
Страна: Франция
Жанр: Erotic/Show, 3D
Продолжительность: 01:20:24
Перевод: Оригинал

Режиссер: Бруно Халлин / Bruno Hullin
Студия: KaBo, Crazy Horse

В ролях:
Люмина Классика, Нука Карамель, Бейби Лайт, Кристиан Лубутен, Лив Менот, Дива Новита, Фьямма Роза, Ясна Снигура, Псикко Тико, Лоа Ваина

Описание:
Знаменитый создатель туфель с красной подошвой ставит шоу в известном парижском клубе «CRAZY HORSE PARIS». По словам самого Лубутена, танцеальные номера в парижском кабаре «это памятник, памятник танцу, фантастическая идея праздника для женщин от женщин».

Проверено на встроенном плейере ТВ Samsung UE55 D6100

Тип HD видео: 1080p
Формат 3D: Half SideBySide / Горизонтальная анаморфная стереопара
Качество: BDRip
Формат: MKV
Видео кодек: H.264
Аудио кодек: AC3
Видео: AVC / 23,976 fps / 1920х1080p / 12.2 Mbps
Аудио: Русский / AC3 / 48 KHz / 5.1 ch / 448 Kbps (MVO - BD3D Rus)
Общее
Уникальный идентификатор : 193848148479865168689365006560670611944 (0x91D5CB9E29F521789032EF682B9979E8)
Полное имя : D:DownloadAdult contentFEU Crazy Horse Paris 3D 2012 BDRip halfSbS 1080p (IgorekSh).mkv
Формат : Matroska
Версия формата : Version 2
Размер файла : 7,23 Гбайт
Продолжительность : 1 ч. 20 м.
Режим общего битрейта : Переменный
Общий поток : 12,9 Мбит/сек
Название фильма : by_Killer
Дата кодирования : UTC 2013-05-17 19:40:57
Программа кодирования : mkvmerge v5.2.0 ('I can't explain') built on Dec 18 2011 18:12:03
Библиотека кодирования : libebml v1.2.3 + libmatroska v1.3.0

Видео
Идентификатор : 1
Формат : AVC
Формат/Информация : Advanced Video Codec
Профиль формата : High@L4.1
Параметр CABAC формата : Да
Параметр ReFrames формата : 2 кадра
Идентификатор кодека : V_MPEG4/ISO/AVC
Продолжительность : 1 ч. 20 м.
Вид битрейта : Переменный
Битрейт : 12,2 Мбит/сек
Максимальный битрейт : 18,6 Мбит/сек
Ширина : 1920 пикселей
Высота : 1080 пикселей
Соотношение сторон : 16:9
Режим частоты кадров : Постоянный
Частота кадров : 23,976 кадра/сек
Цветовое пространство : YUV
Субдискретизация насыщенности : 4:2:0
Битовая глубина : 8 бит
Тип развёртки : Прогрессивная
Бит/(Пиксели*Кадры) : 0.245
Размер потока : 6,83 Гбайт (95%)
Default : Да
Forced : Нет

Аудио
Идентификатор : 2
Формат : AC-3
Формат/Информация : Audio Coding 3
Расширение режима : CM (complete main)
Параметр Endianness формата : Big
Идентификатор кодека : A_AC3
Продолжительность : 1 ч. 20 м.
Вид битрейта : Постоянный
Битрейт : 448 Кбит/сек
Каналы : 6 каналов
Расположение каналов : Front: L C R, Side: L R, LFE
Частота : 48,0 КГц
Битовая глубина : 16 бит
Метод сжатия : С потерями
Размер потока : 258 Мбайт (3%)
Default : Да
Forced : Нет

Меню
00:00:00.000 : en:(01)00:00:00:000
00:05:08.516 : en:(02)00:05:08:516
00:08:44.732 : en:(03)00:08:44:732
00:16:15.182 : en:(04)00:16:15:182
00:23:17.938 : en:(05)00:23:17:938
00:25:49.881 : en:(06)00:25:49:881
00:33:12.073 : en:(07)00:33:12:073
00:38:48.075 : en:(08)00:38:48:075
00:44:59.697 : en:(09)00:44:59:697
00:53:06.391 : en:(10)00:53:06:391
00:57:53.845 : en:(11)00:57:53:845
01:05:11.365 : en:(12)01:05:11:365
01:20:24.319 : en:(13)01:20:24:319

pb.wtf



pack Скачать Огонь Кристиана Лубутена в 3Д через торрент http://pic.kartinco.top/images/2/d1r93j8vni.png Скачать фильм Огонь Кристиана Лубутена в 3Д через торрент бесплантно в хорошем качестве Описание: Знаменитый создатель туфель с красной подошвой ставит шоу в известном парижском клубе «CRAZY HORSE PARIS». По словам самого ... 10 10 8
Info! Золотая раздача, скачанное не засчитывается.
Торрент: Зарегистрирован [2013-06-21 09:17] · скачан: 252 раз
Статус: √ проверено
Размер: 7.23 GB
Как cкачать? Как скачать Огонь Кристиана Лубутена в 3Д через торрент | qTorrent

28-11-2019 20:33  

Отключить всю рекламу на сайте

    Дорогой пользователь! Огромная просьба, поблагодарите релизера, оцените раздачу и оставьте свои комментарий, если Вы скачали Огонь Кристиана Лубутена в 3Д через торрент бесплатно! Внесите свою лепту в развитие PiratBit!
    Комментировать посты могут только пользователи прошедшие не сложную регистрацию
    Показать сообщения:    

    Огонь Кристиана Лубутена в 3Д через торрент
    Скачать бесплатно Огонь Кристиана Лубутена в 3Д
    Огонь Кристиана Лубутена в 3Д скачать торрент
    Огонь Кристиана Лубутена в 3Д смотреть онлайн
    Cкачать фильм Огонь Кристиана Лубутена в 3Д бесплатно
    Огонь Кристиана Лубутена в 3Д скачать торрент в хорошем качестве
    Огонь Кристиана Лубутена в 3Д смотреть онлайн бесплатно в хорошем качестве


    Вы не можете начинать темы
    Вы не можете отвечать на сообщения
    Вы не можете редактировать свои сообщения
    Вы не можете удалять свои сообщения
    Вы не можете голосовать в опросах
    Вы не можете прикреплять файлы к сообщениям
    Вы можете скачивать файлы