Доктор Стрэндж

Лицензия

Добыча

Дубляж

Дом дракона

1 сезон

Тор

Дубляж

В эфире

Дубляж

Там, где раки поют

MVO

Властелин колец

1 сезон

Ultimate

pack

Рекомендуем

30

Пиратка

ВАЖНО

ВАЖНО

Ghostwire

Пиратка

jed

RePack

nioh2

RePack

RDR2

RePack

NEED FOR SPEED™ PAYBACK

RePack

скачать торрент

Кинопоиск HD

Острые козырьки 6 сезон

6 сезон

FAR CRY 6

RePack

скачать торрент

Лицензия

скачать торрент

MVO

1

1 сезон

скачать торрент

1 сезон

скачать торрент

Лицензия

  

Афера / The Con Job (Robby D. / Digital Playground) [2011 г., Feature, Couples, Vignettes, PornStars, BDRip 720p, Оригинал]

Афера через торрент pb.wtf

Размер: 4.37 GB | Добавлен: 9 лет 5 мес. назад | Торрент скачан:102 раза
| Скачать   

21-06-2013 11:33 Афера Скачать торрент  

Афера / The Con Job
Год выпуска: 2011
Страна: США
Жанр: Feature, Couples, Vignettes, PornStars
Продолжительность: 01:47:02
Перевод: Оригинал

Режиссер: Robby D.
Студия: Digital Playground

В ролях:
Riley Steele, Kayden Kross, Nikki Delano, Giselle Leon, Manuel Ferrara, James Deen, Erik Everhard, Charles Dera

Описание:
Sexy Kayden Kross is a bad girl in need of some hot, horny fun with her nasty, stiff membered partner, James Deen. Con Job adult DVD He's a twisted, perverted con man running his lusty game against everyone, Including Kayden, until she turns the naughty tables on him. Wild sex games, and hard pumping action makes the hot babes, Riley Steele, Giselle and Nikki Delano, jump on the dangerous ride with deep drillers and hung studs, Erik Everhard, Manuel Ferrara and Charles Dera!

Качество: BDRip 720p
Формат: MKV
Видео кодек: H.264
Аудио кодек: AC3
Видео: MPEG4 Video (H264) 1280x720, 23,976 fps, ~5206 Kbps
Аудио: Dolby AC3 48000 Hz, 6 ch, ~640 kbps
Общее
Уникальный идентификатор : 211229209686568572948504445226993306357 (0x9EE94418FFDBB8139F14167B5763CAF5)
Полное имя : The.Con.Job.XXX.720p.BluRay.x264-Jiggly.mkv
Формат : Matroska
Версия формата : Version 2
Размер файла : 4,37 Гбайт
Продолжительность : 1 ч. 47 м.
Общий поток : 5848 Кбит/сек
Дата кодирования : UTC 2012-06-21 05:11:53
Программа кодирования : mkvmerge v5.6.0 ('Kenya Kane') built on May 27 2012 16:44:04
Библиотека кодирования : libebml v1.2.3 + libmatroska v1.3.0

Видео
Идентификатор : 1
Формат : AVC
Формат/Информация : Advanced Video Codec
Профиль формата : [email protected]
Параметр CABAC формата : Да
Параметр ReFrames формата : 5 кадров
Идентификатор кодека : V_MPEG4/ISO/AVC
Продолжительность : 1 ч. 47 м.
Битрейт : 5206 Кбит/сек
Ширина : 1280 пикселей
Высота : 720 пикселей
Соотношение сторон : 16:9
Частота кадров : 23,976 кадра/сек
Цветовое пространство : YUV
Субдискретизация насыщенности : 4:2:0
Битовая глубина : 8 бит
Тип развёртки : Прогрессивная
Бит/(Пиксели*Кадры) : 0.236
Размер потока : 3,81 Гбайт (87%)
Библиотека кодирования : x264 core 125 r2200 999b753
Настройки программы : cabac=1 / ref=5 / deblock=1:0:0 / analyse=0x3:0x133 / me=umh / subme=7 / psy=1 / psy_rd=1.00:0.00 / mixed_ref=1 / me_range=16 / chroma_me=1 / trellis=1 / 8x8dct=1 / cqm=0 / deadzone=21,11 / fast_pskip=0 / chroma_qp_offset=-2 / threads=12 / lookahead_threads=2 / sliced_threads=0 / nr=0 / decimate=1 / interlaced=0 / bluray_compat=0 / constrained_intra=0 / bframes=3 / b_pyramid=2 / b_adapt=1 / b_bias=0 / direct=1 / weightb=1 / open_gop=0 / weightp=2 / keyint=240 / keyint_min=23 / scenecut=40 / intra_refresh=0 / rc_lookahead=40 / rc=2pass / mbtree=1 / bitrate=5206 / ratetol=1.0 / qcomp=0.60 / qpmin=10 / qpmax=51 / qpstep=4 / cplxblur=20.0 / qblur=0.5 / ip_ratio=1.40 / aq=1:1.00
Язык : English
Default : Да
Forced : Нет

Аудио
Идентификатор : 2
Формат : AC-3
Формат/Информация : Audio Coding 3
Расширение режима : CM (complete main)
Параметр Endianness формата : Big
Идентификатор кодека : A_AC3
Продолжительность : 1 ч. 47 м.
Вид битрейта : Постоянный
Битрейт : 640 Кбит/сек
Каналы : 6 каналов
Расположение каналов : Front: L C R, Side: L R, LFE
Частота : 48,0 КГц
Битовая глубина : 16 бит
Метод сжатия : С потерями
Размер потока : 490 Мбайт (11%)
Default : Да
Forced : Нет




pack Скачать Афера через торрент http://i48.fastpic.ru/big/2013/0621/96/f073a07f7c912e6d6469d1365354e596.png Скачать, смотреть онлайн Афера бесплантно в хорошем качестве Описание: Sexy Kayden Kross is a bad girl in need of some hot, horny fun with her nasty, stiff membered partner, James Deen. Con Job adult ... 10 10 4
Info! Золотая раздача, скачанное не засчитывается.
Торрент: Зарегистрирован [2013-06-21 11:33] · скачан: 102 раз
Статус: √ проверено
Размер: 4.37 GB
Как cкачать? Как скачать Афера через торрент | UTorrent

% Раздел Тема Автор DL S | L
Порно фильмы с сюжетом [ 702 MB ] Афера / The Con Job | | DVDRip SKAV Скачать
1 | 0

28-11-2019 20:33  


Отключить вcю реклaмy на сайте, в т.ч. и в плеере онлайн просмотра!

    Дорогой пользователь! Огромная просьба, поблагодарите релизера, оцените раздачу и оставьте свои комментарий, если Вы скачали Афера через торрент бесплатно!!
    Комментировать посты могут только пользователи прошедшие не сложную регистрацию
    Показать сообщения:    


    Афера через торрент
    Скачать бесплатно Афера
    Афера скачать торрент
    Афера смотреть онлайн
    Cкачать фильм Афера бесплатно
    Афера скачать торрент в хорошем качестве
    Афера смотреть онлайн бесплатно в хорошем качестве
    Вы не можете начинать темы
    Вы не можете отвечать на сообщения
    Вы не можете редактировать свои сообщения
    Вы не можете удалять свои сообщения
    Вы не можете голосовать в опросах
    Вы не можете прикреплять файлы к сообщениям
    Вы можете скачивать файлы
    Афера / The Con Job [2011 г., Feature, Couples, Vignettes, PornStars, BDRip 720p, Оригинал] смотреть онлайн, скачать торрент picoco.icu