2 сезон

iTunes

MVO

1

2 сезон

iTunes

iTunes

1 сезон

RePack

30

Новинка

ВАЖНО

ИГРА 18+

pack

RePack

MK11
pack

Легкие деньги

RePack

jed

RePack

fifa19

RePack

RDR2

RePack

NEED FOR SPEED™ PAYBACK

4 сезон

9 сезон

Бесстыжие 9 сезон

Все сериалы

все сериалы на PB.wtf

RePack

FAR CRY 5

Anonymous, доброй ночи, мы не успеваем собрать деньги на оплату серверов за декабрь и январь, помогите нам пожалуйста в это трудное время. В качестве благодарности мы отключим Вам всю рекламу на сайте (укажите свой ник в строку Ваше имя)!

×
  
Magnet ссылка

Параллельные миры в 3D / Upside Down in 3D (Хуан Диего Соланас) [2011 г., фэнтези, мелодрама, BDRip 1080p, Дубляж + Оригинал] Half OverUnder / Вертикальная анаморфная стереопара pb.wtf

Параллельные миры в 3D через торрент pb.wtf

Размер: 7.99 GB | Добавлен: 7 лет 6 мес. назад | Торрент скачан:983 раза
Скачать  

21-06-2013 11:41 Параллельные миры в 3D Скачать торрент  

Параллельные миры в 3D / Upside Down in 3D
Год выпуска: 2011
Страна: Канада, Франция
Жанр: фэнтези, мелодрама,
Продолжительность: 01:47:51
Перевод: Дубляж + Оригинал

Режиссер: Хуан Диего Соланас
Продюссер: Клод Леже, Дмитрий Рассам, Атон Сумаш
Сценарий: Хуан Диего Соланас

Бюджет: $72 000 000
Премьера в мире: 22 августа 2012

IMDB 6.30 (22 239)



В ролях: Кирстен Данст, Джим Стёрджесс, Тимоти Сполл, Джейн Хейтмейер, Нил Напье, Агнешка Вроновска, Джеймс Кидни, Ларри Дэй, Николас Роуз, Фрэнк М. Эхерн,
Роли дублировали: Василиса Воронина, Всеволод Кузнецов, Александр Гаврилин, Денис Беспалый, Никита Прозоровский,

Описание: Очень давно две планеты притянулись друг к другу, и на обеих планетах живут люди, для каждой из планет есть своё притяжение. На верхней планете царит богатство и благоденствие. На ней создана корпорация, выкачивающая недры второй планеты и взамен предлагающая электроэнергию по неподъёмной для бедных жителей нижней планеты цене. Перемещение людей между планетами жестко контролируется.В центре событий находятся двое людей: она — девушка из богатой семьи из верхнего мира, он — простой человек из нижнего мира, и они любят друг друга. А ещё есть секрет пчелиной пыльцы, которая добывается одновременно на обеих планетах и имеет невероятные свойства.

Доп. информация: Формат 3D: Half OverUnder / Вертикальная анаморфная стереопара
Порядок ракурсов: левый ракурс первый

Качество: BDRip 1080p
Формат: MKV
Видео кодек: H.264
Аудио кодек: AC3
Видео: x264, (CRF18, L4.1), 1920 x 1080, (16:9) 23.976 fps, 9 308 Kbps, (0.187bit/pixel)
Аудио#1: Русский / AC3 / 48 KHz / 5.1 ch / 448 Kbps
Аудио#2: Английский / AC3 / 48 KHz / 5.1 ch / 640 Kbps




Общее
Уникальный идентификатор : 218588044444452577831294698485711116981 (0xA47286A9C66AB8A7B97466EAE4E41AB5)
Полное имя : D:DVDUpside.Down.2012.3D.1080p.Bluray.HOU.X264.mkv
Формат : Matroska
Версия формата : Version 2
Размер файла : 7,99 Гбайт
Продолжительность : 1 ч. 47 м.
Общий поток : 10,6 Мбит/сек
Название фильма : Параллельные миры / Upside Down (2012) Half-OU
Дата кодирования : UTC 2013-06-21 09:37:18
Программа кодирования : mkvmerge v3.4.0 ('Rapunzel') сборка от May 15 2010 09:38:20
Библиотека кодирования : libebml v0.8.0 + libmatroska v0.9.0

Видео
Идентификатор : 1
Формат : AVC
Формат/Информация : Advanced Video Codec
Профиль формата : High@L4.1
MultiView_Count : 2
MultiView_Layout : Both Eye
Параметр CABAC формата : Да
Параметр ReFrames формата : 4 кадра
Идентификатор кодека : V_MPEG4/ISO/AVC
Продолжительность : 1 ч. 47 м.
Битрейт : 9308 Кбит/сек
Ширина : 1920 пикселей
Высота : 1080 пикселей
Соотношение сторон : 16:9
Режим частоты кадров : Постоянный
Частота кадров : 23,976 кадра/сек
Цветовое пространство : YUV
Субдискретизация насыщенности : 4:2:0
Битовая глубина : 8 бит
Тип развёртки : Прогрессивная
Бит/(Пиксели*Кадры) : 0.187
Размер потока : 7,01 Гбайт (88%)
Заголовок : Upside.Down.2012.3D.1080p.HOU.mkv
Default : Нет
Forced : Нет

Аудио #1
Идентификатор : 2
Формат : AC-3
Формат/Информация : Audio Coding 3
Расширение режима : CM (complete main)
Параметр Endianness формата : Big
Идентификатор кодека : A_AC3
Продолжительность : 1 ч. 47 м.
Вид битрейта : Постоянный
Битрейт : 448 Кбит/сек
Каналы : 6 каналов
Расположение каналов : Front: L C R, Side: L R, LFE
Частота : 48,0 КГц
Битовая глубина : 16 бит
Метод сжатия : С потерями
Размер потока : 346 Мбайт (4%)
Заголовок : Dub
Язык : Russian
Default : Да
Forced : Нет

Аудио #2
Идентификатор : 3
Формат : AC-3
Формат/Информация : Audio Coding 3
Расширение режима : CM (complete main)
Параметр Endianness формата : Big
Идентификатор кодека : A_AC3
Продолжительность : 1 ч. 47 м.
Вид битрейта : Постоянный
Битрейт : 640 Кбит/сек
Каналы : 6 каналов
Расположение каналов : Front: L C R, Side: L R, LFE
Частота : 48,0 КГц
Битовая глубина : 16 бит
Метод сжатия : С потерями
Задержка видео : 12 мс.
Размер потока : 494 Мбайт (6%)
Язык : English
Default : Нет
Forced : Нет

Меню
00:00:00.000 : en:00:00:00.000
00:07:45.506 : en:00:08:00.438
00:14:17.314 : en:00:14:32.246
00:22:23.425 : en:00:22:38.357
00:35:09.190 : en:00:35:24.122
00:42:12.154 : en:00:42:27.086
00:50:33.363 : en:00:50:48.295
01:05:17.330 : en:01:05:32.262
01:13:57.725 : en:01:14:12.657
01:22:53.927 : en:01:23:08.859
01:31:04.876 : en:01:31:19.808
01:38:44.668 : en:01:38:59.600


Параллельные миры скачать торрент


pb.wtf



Скачать Параллельные миры в 3D через торрент http://i47.fastpic.ru/big/2013/0621/ff/c75ca6b8d2a34eb8ee68a2777ad1f6ff.gif Скачать фильм Параллельные миры в 3D через торрент бесплантно в хорошем качестве Описание: Очень давно две планеты притянулись друг к другу, и на обеих планетах живут люди, для каждой из планет есть своё притяжение. На ... 9.5 10 22
Info! Золотая раздача, скачанное не засчитывается.
Торрент: Зарегистрирован [2013-06-21 11:41] · скачан: 983 раз
Статус: √ проверено
Размер: 7.99 GB
Как cкачать? Как скачать Параллельные миры в 3D через торрент | UTorrent

28-11-2019 20:33  

Отключить всю рекламу на сайте

21-06-2013 12:09 Параллельные миры в 3D Скачать торрент  

Отличный фильм! Спасибо! Хорошо, что переиздали его в 3D. Давно ждал.
P.S. Почему только серебряная раздача? Можно было и золотой сделать. Фильме же отличный...pb.wtf



21-06-2013 20:37 Параллельные миры в 3D Скачать торрент  

Ездил на премьеру! Исправь фильм 12го, а не 11годаpb.wtf



22-06-2013 19:02 Параллельные миры в 3D Скачать торрент  

да золото было бы кстати ,но всё равно качаю!СПСpb.wtf



    Дорогой пользователь! Огромная просьба, поблагодарите релизера, оцените раздачу и оставьте свои комментарий, если Вы скачали Параллельные миры в 3D через торрент бесплатно! Внесите свою лепту в развитие PiratBit!
    Комментировать посты могут только пользователи прошедшие не сложную регистрацию
    Показать сообщения:    

    Параллельные миры в 3D через торрент
    Скачать бесплатно Параллельные миры в 3D
    Параллельные миры в 3D скачать торрент
    Параллельные миры в 3D смотреть онлайн
    Cкачать фильм Параллельные миры в 3D бесплатно
    Параллельные миры в 3D скачать торрент в хорошем качестве
    Параллельные миры в 3D смотреть онлайн бесплатно в хорошем качестве


    Вы не можете начинать темы
    Вы не можете отвечать на сообщения
    Вы не можете редактировать свои сообщения
    Вы не можете удалять свои сообщения
    Вы не можете голосовать в опросах
    Вы не можете прикреплять файлы к сообщениям
    Вы можете скачивать файлы