Доктор Стрэндж

Лицензия

Добыча

Дубляж

Дом дракона

1 сезон

Тор

Дубляж

В эфире

Дубляж

Там, где раки поют

MVO

Властелин колец

1 сезон

Ultimate

pack

Рекомендуем

30

Пиратка

ВАЖНО

ВАЖНО

Ghostwire

Пиратка

jed

RePack

nioh2

RePack

RDR2

RePack

NEED FOR SPEED™ PAYBACK

RePack

скачать торрент

Кинопоиск HD

Острые козырьки 6 сезон

6 сезон

FAR CRY 6

RePack

скачать торрент

Лицензия

скачать торрент

MVO

1

1 сезон

скачать торрент

1 сезон

скачать торрент

Лицензия

  

История дельфина в 3D / Dolphin Tale in 3D (Чарльз Мартин Смит) [2011 г., драма, семейный, BDRip 1080p, Дубляж + Оригинал] Анаглиф (Дюбуа)

История дельфина в 3D через торрент pb.wtf

Размер: 6.91 GB | Добавлен: 9 лет 5 мес. назад | Торрент скачан:51 раз
Смотреть онлайн | Скачать   

21-06-2013 18:30 История дельфина в 3D Скачать торрент  

История дельфина в 3D / Dolphin Tale in 3D
Год выпуска: 2011
Страна: США
Жанр: драма, семейный,
Продолжительность: 01:52:39
Перевод: Дубляж + Оригинал

Режиссер: Чарльз Мартин Смит
Продюссер: Ричард Ингбер, Бродерик Джонсон, Эндрю А. Косов
Сценарий: Карен Джансзен, Ноам Дроми

Бюджет: $37 000 000
Премьера в мире: 21 сентября 2011

IMDB 6.70 (10 617)



В ролях: Гарри Конник мл., Эшли Джадд, Нэйтан Гэмбл, Крис Кристофферсон, Кози Цуельсдорфф, Морган Фриман, Остин Стоуэлл, Фрэнсис Стернхаген, Остин Хигсмит, Бетси Лэндин,
Роли дублировали: Александр Рахленко, Лариса Некипелова, Иван Дахненко, Рудольф Панков, Лиза Мартиросова,

Описание: Мальчик Сойер находит раненого дельфина, выброшенного на берег. Его отвозят в больницу для морских животных и дают ему кличку Уинтер. Из-за полученной травмы дельфин лишается хвоста, что делает его выживание практически невозможным. Но благодаря преданному другу Сойеру, опытному морскому биологу и гениальному протезисту, создавшему новый хвост, Уинтеру удается вернуться к нормальной жизни.

Доп. информация: Формат 3D: Анаглиф (Дюбуа)



Качество: BDRip 1080p
Формат: MKV
Видео кодек: H.264
Аудио кодек: AC3
Видео: 1920 х 1080 / 23,976 fps, (16:9) / 8001 Kbps, (0.161 bit/pixel)
Аудио#1: Русский / AC3 / 48 KHz / 5.1 ch / 384 Kbps
Аудио#2: Английский / AC3 / 48 KHz / 5.1 ch / 384 Kbps



скриншот   скриншот   скриншот   скриншот   скриншот  
Общее
Уникальный идентификатор : 84512609820299793619453563332048795250 (0x3F94895E2ABA9AFC8874CBEB51553672)
Полное имя : D:DVDDolphin.Tale.3D.(Anaglyph_Dubois).mkv
Формат : Matroska
Версия формата : Version 2
Размер файла : 6,91 Гбайт
Продолжительность : 1 ч. 52 м.
Общий поток : 8784 Кбит/сек
Программа кодирования : HandBrake 0.9.8
Библиотека кодирования : libmkv 0.6.5

Видео
Идентификатор : 1
Формат : AVC
Формат/Информация : Advanced Video Codec
Профиль формата : [email protected]
Параметр CABAC формата : Нет
Параметр ReFrames формата : 1 кадр
Идентификатор кодека : V_MPEG4/ISO/AVC
Продолжительность : 1 ч. 52 м.
Битрейт : 8001 Кбит/сек
Ширина : 1920 пикселей
Высота : 1080 пикселей
Соотношение сторон : 16:9
Режим частоты кадров : Постоянный
Частота кадров : 23,976 кадра/сек
Цветовое пространство : YUV
Субдискретизация насыщенности : 4:2:0
Битовая глубина : 8 бит
Тип развёртки : Прогрессивная
Бит/(Пиксели*Кадры) : 0.161
Размер потока : 6,17 Гбайт (89%)
Библиотека кодирования : x264 core 120
Настройки программы : cabac=0 / ref=1 / deblock=0:0:0 / analyse=0:0 / me=dia / subme=0 / psy=1 / psy_rd=1.00:0.00 / mixed_ref=0 / me_range=16 / chroma_me=1 / trellis=0 / 8x8dct=0 / cqm=0 / deadzone=21,11 / fast_pskip=1 / chroma_qp_offset=0 / threads=3 / sliced_threads=0 / nr=0 / decimate=1 / interlaced=0 / bluray_compat=0 / constrained_intra=0 / bframes=0 / weightp=0 / keyint=240 / keyint_min=24 / scenecut=0 / intra_refresh=0 / rc=abr / mbtree=0 / bitrate=8001 / ratetol=1.0 / qcomp=0.60 / qpmin=3 / qpmax=69 / qpstep=4 / ip_ratio=1.40 / aq=0
Язык : English
Default : Да
Forced : Нет
Основные цвета : BT.709
Характеристики трансфера : BT.709
Коэффициенты матрицы : BT.709

Аудио #1
Идентификатор : 2
Формат : AC-3
Формат/Информация : Audio Coding 3
Расширение режима : CM (complete main)
Параметр Endianness формата : Big
Идентификатор кодека : A_AC3
Продолжительность : 1 ч. 52 м.
Вид битрейта : Постоянный
Битрейт : 384 Кбит/сек
Каналы : 6 каналов
Расположение каналов : Front: L C R, Side: L R, LFE
Частота : 48,0 КГц
Битовая глубина : 16 бит
Метод сжатия : С потерями
Размер потока : 309 Мбайт (4%)
Язык : Russian
Default : Да
Forced : Нет

Аудио #2
Идентификатор : 3
Формат : AC-3
Формат/Информация : Audio Coding 3
Расширение режима : CM (complete main)
Параметр Endianness формата : Big
Идентификатор кодека : A_AC3
Продолжительность : 1 ч. 52 м.
Вид битрейта : Постоянный
Битрейт : 384 Кбит/сек
Каналы : 6 каналов
Расположение каналов : Front: L C R, Side: L R, LFE
Частота : 48,0 КГц
Битовая глубина : 16 бит
Метод сжатия : С потерями
Размер потока : 309 Мбайт (4%)
Язык : English
Default : Нет
Forced : Нет

Меню
00:00:00.000 : Chapter 1
00:09:14.345 : Chapter 2
00:19:32.838 : Chapter 3
00:27:58.718 : Chapter 4
00:39:20.733 : Chapter 5
00:47:27.135 : Chapter 6
00:58:13.990 : Chapter 7
01:07:11.485 : Chapter 8
01:19:00.986 : Chapter 9
01:29:13.681 : Chapter 10
01:39:39.181 : Chapter 11
01:45:18.979 : Chapter 12


История дельфина скачать торрент





Скачать История дельфина в 3D через торрент http://i47.fastpic.ru/big/2013/0621/41/7ea70bd905a9ef3f9ddf59ecbba8bb41.gif Скачать, смотреть онлайн История дельфина в 3D бесплантно в хорошем качестве Описание: Мальчик Сойер находит раненого дельфина, выброшенного на берег. Его отвозят в больницу для морских животных и дают ему кличку ... 10 10 2
Info! Золотая раздача, скачанное не засчитывается.
Торрент: Зарегистрирован [2013-06-21 18:30] · скачан: 51 раз
Статус: √ проверено
Размер: 6.91 GB
Как cкачать? Как скачать История дельфина в 3D через торрент | UTorrent

28-11-2019 20:33  


Отключить вcю реклaмy на сайте, в т.ч. и в плеере онлайн просмотра!

    Дорогой пользователь! Огромная просьба, поблагодарите релизера, оцените раздачу и оставьте свои комментарий, если Вы скачали История дельфина в 3D через торрент бесплатно!!
    Комментировать посты могут только пользователи прошедшие не сложную регистрацию
    Показать сообщения:    


    История дельфина в 3D через торрент
    Скачать бесплатно История дельфина в 3D
    История дельфина в 3D скачать торрент
    История дельфина в 3D смотреть онлайн
    Cкачать фильм История дельфина в 3D бесплатно
    История дельфина в 3D скачать торрент в хорошем качестве
    История дельфина в 3D смотреть онлайн бесплатно в хорошем качестве
    Вы не можете начинать темы
    Вы не можете отвечать на сообщения
    Вы не можете редактировать свои сообщения
    Вы не можете удалять свои сообщения
    Вы не можете голосовать в опросах
    Вы не можете прикреплять файлы к сообщениям
    Вы можете скачивать файлы
    История дельфина в 3D / Dolphin Tale in 3D [2011 г., драма, семейный, BDRip 1080p, Дубляж + Оригинал] Анаглиф смотреть онлайн, скачать торрент picoco.icu