Ссылка на приватное зеркало всего за 1$. Внимание количество ограничено!!!

iTunes

iTunes

iTunes

1

iTunes

iTunes

iTunes

iTunes

iTunes

30
pack

$ от Little Big

ВАЖНО

!!Акция!!

Alien_RageХит недели

RePack

Resident Evil 21

ИГРА 18+

pack

RePack

jed

!!Акция!!

Alien_Rage

RePack

fifa19

RePack

Assassins Creed: Odyssey

RePack

NEED FOR SPEED™ PAYBACK

4 сезон

9 сезон

Бесстыжие 9 сезон

Все сериалы

все сериалы на PB.wtf

RePack

FAR CRY 5
  

Фил Спектор / Phil Spector (Дэвид Мэмет / David Mamet) [ 2013 , США , драма, биография , HDTV 720p] MVO [Пифагор] pb.wtf

Фил Спектор через торрент pb.wtf

Размер: 3.39 GB | Добавлен: 7 лет назад | Торрент скачан:26 раз
Скачать  

22-06-2013 20:26 Фил Спектор Скачать торрент  

Фил Спектор / Phil Spector


  • Год выпуска:2013
  • Страна: США
  • Жанр:драма, биография
  • Продолжительность: 01:31:41
  • Перевод:Профессиональный (многоголосый, закадровый) [Пифагор]

  • Субтитры: Нет
    • Режиссер: Дэвид Мэмет / David Mamet
    • Продюсер: Майкл Хаусман / Michael Hausman, Барри Левинсон / Barry Levinson, Дэвид Мэмет / David Mamet
    • Сценарий:Дэвид Мэмет / David Mamet

  • В ролях:Аль Пачино (Phil Spector), Хелен Миррен (Linda Kenney Baden), Джеффри Тэмбор (Bruce Cutler), Чиветель Эджиофор (Mock Prosecutor), Ребекка Пиджон (Dr. Fallon), Джон Пирруччелло (Nick Stavros), Джеймс Толкан (Judge Fidler), Дэвид Аарон Бэйкер (ADA Alan Jackson), Мэтт Мэллой (Dr. Spitz), Джек Уоллес (Music Store Owner), Доминик Хоффман (Mr. Brown), Филип Мартин (James)
    • Описание:
      История отношений Фила Спектора и адвоката Линды Кенни Баден в тот период, когда человек - легенда музыкального бизнеса, был под следствием по делу об убийстве Ланы Кларксон.

  • Рейтинг
    kinopoisk.ru: 6.708 (84)
    imdb.com: 6.40 (1 340)
    • Качество: HDTV 720p
    • Формат: MKV
    • Видео кодек: AVC
    • Аудио кодек: AC3
    • Видео: 1280x720 (16:9), 4719 kbps, 23,976 fps, 0,214 bpp
    • Аудио №1: русский / AC3 / 2.0 / 48 kHz / 192 kbps / 16 bit ||
      Аудио №2: английский / AC3 / 5.1 / 48 kHz / 384 kbps / 16 bit

    General
    Unique ID : 224078179239803601689997844943683600584 (0xA893E3350BD3DF598C4989D105F240C8)
    Complete name : D:ТорентыФил Спектор .2013.HDTV.720p.mkv
    Format : Matroska
    Format version : Version 2
    File size : 3.39 GiB
    Duration : 1h 31mn
    Overall bit rate : 5 297 Kbps
    Encoded date : UTC 2013-06-22 13:52:04
    Writing application : mkvmerge v5.3.0 ('I could have danced') built on Mar 4 2012 19:18:32
    Writing library : libebml v1.2.3 + libmatroska v1.3.0

    Video
    ID : 1
    Format : AVC
    Format/Info : Advanced Video Codec
    Format profile : High@L4.1
    Format settings, CABAC : Yes
    Format settings, ReFrames : 5 frames
    Codec ID : V_MPEG4/ISO/AVC
    Duration : 1h 31mn
    Bit rate : 4 719 Kbps
    Width : 1 280 pixels
    Height : 720 pixels
    Display aspect ratio : 16:9
    Frame rate : 23.976 fps
    Color space : YUV
    Chroma subsampling : 4:2:0
    Bit depth : 8 bits
    Scan type : Progressive
    Bits/(Pixel*Frame) : 0.214
    Stream size : 2.96 GiB (87%)
    Writing library : x264 core 130 r2273 b3065e6
    Encoding settings : cabac=1 / ref=5 / deblock=1:0:0 / analyse=0x3:0x113 / me=umh / subme=7 / psy=1 / psy_rd=1.00:0.00 / mixed_ref=1 / me_range=16 / chroma_me=1 / trellis=1 / 8x8dct=1 / cqm=0 / deadzone=21,11 / fast_pskip=1 / chroma_qp_offset=-2 / threads=18 / lookahead_threads=3 / sliced_threads=0 / nr=0 / decimate=1 / interlaced=0 / bluray_compat=0 / constrained_intra=0 / bframes=3 / b_pyramid=2 / b_adapt=1 / b_bias=0 / direct=3 / weightb=1 / open_gop=0 / weightp=2 / keyint=240 / keyint_min=23 / scenecut=40 / intra_refresh=0 / rc_lookahead=50 / rc=2pass / mbtree=1 / bitrate=4719 / ratetol=1.0 / qcomp=0.60 / qpmin=0 / qpmax=69 / qpstep=4 / cplxblur=20.0 / qblur=0.5 / ip_ratio=1.40 / aq=1:1.00
    Language : English
    Default : Yes
    Forced : No

    Audio #1
    ID : 2
    Format : AC-3
    Format/Info : Audio Coding 3
    Mode extension : CM (complete main)
    Codec ID : A_AC3
    Duration : 1h 31mn
    Bit rate mode : Constant
    Bit rate : 192 Kbps
    Channel(s) : 2 channels
    Channel positions : Front: L R
    Sampling rate : 48.0 KHz
    Bit depth : 16 bits
    Compression mode : Lossy
    Stream size : 126 MiB (4%)
    Language : Russian
    Default : Yes
    Forced : No

    Audio #2
    ID : 3
    Format : AC-3
    Format/Info : Audio Coding 3
    Mode extension : CM (complete main)
    Codec ID : A_AC3
    Duration : 1h 31mn
    Bit rate mode : Constant
    Bit rate : 384 Kbps
    Channel(s) : 6 channels
    Channel positions : Front: L C R, Side: L R, LFE
    Sampling rate : 48.0 KHz
    Bit depth : 16 bits
    Compression mode : Lossy
    Stream size : 252 MiB (7%)
    Language : English
    Default : No
    Forced : No
    Сценарий: Дэвид Мэмет / David Mamet
    Продюсер: Майкл Хаусман / Michael Hausman, Барри Левинсон / Barry Levinson, Дэвид Мэмет / David Mamet
    Оператор: Хуан Руис Анчия / Juan Ruiz Anchía
    Композитор: Марсело Зарвос / Marcelo Zarvos

    Мировая премьера: 24 марта 2013



    © Оформление by Vetalpb.wtf



  • Скачать Фил Спектор через торрент http://i2.imageban.ru/out/2013/06/23/87504a380983d8807c7b27bece0a2369.jpg Скачать фильм Фил Спектор через торрент бесплантно в хорошем качестве Описание:История отношений Фила Спектора и адвоката Линды Кенни Баден в тот период, когда человек - легенда музыкального бизнеса, был под ... 8 10 1
    Info! Золотая раздача, скачанное не засчитывается.
    Торрент: Зарегистрирован [2013-06-22 20:26] · скачан: 26 раз
    Статус: √ проверено
    Размер: 3.39 GB
    Как cкачать? Как скачать Фил Спектор через торрент | qTorrent

    % Раздел Тема Автор DL S | L
    Фильмы 2013 [DVDrip, WEB-DLRip, HDrip] [ 1.43 GB ] Фил Спектор / Phil Spector [ 2013 биография HDTVRip ] MVO [Пифагор] Ворон Скачать
    1 | 0

    28-11-2019 20:33  

    Отключить всю рекламу на сайте

      Дорогой пользователь! Огромная просьба, поблагодарите релизера, оцените раздачу и оставьте свои комментарий, если Вы скачали Фил Спектор через торрент бесплатно! Внесите свою лепту в развитие PiratBit!
      Комментировать посты могут только пользователи прошедшие не сложную регистрацию
      Показать сообщения:    

      Фил Спектор через торрент
      Скачать бесплатно Фил Спектор
      Фил Спектор скачать торрент
      Фил Спектор смотреть онлайн
      Cкачать фильм Фил Спектор бесплатно
      Фил Спектор скачать торрент в хорошем качестве
      Фил Спектор смотреть онлайн бесплатно в хорошем качестве


      Вы не можете начинать темы
      Вы не можете отвечать на сообщения
      Вы не можете редактировать свои сообщения
      Вы не можете удалять свои сообщения
      Вы не можете голосовать в опросах
      Вы не можете прикреплять файлы к сообщениям
      Вы можете скачивать файлы