Ссылка на приватное зеркало нашего сайта всего за 1$. Внимание количество ограничено!!!

2 сезон

iTunes

1 сезон

1

iTunes

iTunes

iTunes

1 сезон

RePack

30

ИГРА 18+

pack

ВАЖНО

!!Акция!!

Alien_RageХит недели

RePack

MK11
pack

Забери бонус

RePack

jed

!!Акция!!

Alien_Rage

RePack

fifa19

RePack

Assassins Creed: Odyssey

RePack

NEED FOR SPEED™ PAYBACK

4 сезон

9 сезон

Бесстыжие 9 сезон

Все сериалы

все сериалы на PB.wtf

RePack

FAR CRY 5
  

30 Seconds to Mars - Love Lust Faith + Dreams 2013 FLAC (tracks+.cue), lossless / Alternative / Rock pb.wtf

30 Seconds to Mars - Love Lust Faith + Dreams 2013 FLAC через торрент pb.wtf

Размер: 314 MB | Добавлен: 7 лет 4 мес. назад | Торрент скачан:130 раз
Скачать  

22-06-2013 22:31 30 Seconds to Mars - Love Lust Faith + Dreams 2013 FLAC Скачать торрент  

30 Seconds to Mars - Love Lust Faith + Dreams (2013)
Год издания: 2013
Жанр: Rock / Alternative
Страна: USA
Продолжительность: 00:44:53
Аудиокодек: FLAC (*.flac)
Тип рипа: tracks
Издатель (лейбл): Virgin Records
Наличие сканов в содержимом раздачи: да
  • 01. Birth (2:07)
  • 02. Conquistador (3:12)
  • 03. Up in the Air (4:36)
  • 04. City of Angels (5:02)
  • 05. The Race (3:40)
  • 06. End of All Days (4:46)
  • 07. Pyres of Varanasi (3:12)
  • 08. Bright Lights (4:51)
  • 09. Do or Die (4:08)
  • 10. Convergence (2:01)
  • 11. Northern Lights (4:44)
  • 12. Depuis Le Début (2:33)

Exact Audio Copy V1.0 beta 3 from 29. August 2011

EAC extraction logfile from 16. May 2013, 19:50

Thirty Seconds to Mars / Love Lust Faith + Dreams

Used drive : LITE-ON DVDRW SOHW-1653S Adapter: 0 ID: 0

Read mode : Secure
Utilize accurate stream : Yes
Defeat audio cache : Yes
Make use of C2 pointers : No

Read offset correction : 12
Overread into Lead-In and Lead-Out : No
Fill up missing offset samples with silence : Yes
Delete leading and trailing silent blocks : No
Null samples used in CRC calculations : Yes
Used interface : Native Win32 interface for Win NT & 2000
Gap handling : Appended to previous track

Used output format : User Defined Encoder
Selected bitrate : 1024 kBit/s
Quality : High
Add ID3 tag : No
Command line compressor : C:Program FilesExact Audio CopyFLACFLAC.EXE
Additional command line options : -8 -V -T "ARTIST=%artist%" -T "TITLE=%title%" -T "ALBUM=%albumtitle%" -T "DATE=%year%" -T "TRACKNUMBER=%tracknr%" -T "GENRE=%genre%" -T "PERFORMER=%albuminterpret%" -T "COMPOSER=%composer%" %haslyrics%--tag-from-file=LYRICS="%lyricsfile%"%haslyrics% -T "ALBUMARTIST=%albumartist%" -T "DISCNUMBER=%cdnumber%" -T "TOTALDISCS=%totalcds%" -T "TOTALTRACKS=%numtracks%" -T "COMMENT=%comment%" %source% -o %dest%

TOC of the extracted CD

Track | Start | Length | Start sector | End sector
---------------------------------------------------------
1 | 0:00.00 | 2:07.29 | 0 | 9553
2 | 2:07.29 | 3:12.18 | 9554 | 23971
3 | 5:19.47 | 4:35.59 | 23972 | 44655
4 | 9:55.31 | 5:02.03 | 44656 | 67308
5 | 14:57.34 | 3:40.22 | 67309 | 83830
6 | 18:37.56 | 4:46.34 | 83831 | 105314
7 | 23:24.15 | 3:12.28 | 105315 | 119742
8 | 26:36.43 | 4:51.20 | 119743 | 141587
9 | 31:27.63 | 4:07.61 | 141588 | 160173
10 | 35:35.49 | 2:00.58 | 160174 | 169231
11 | 37:36.32 | 4:44.13 | 169232 | 190544
12 | 42:20.45 | 2:33.03 | 190545 | 202022

Track 1

Filename P:\01 - Birth.wav

Pre-gap length 0:00:02.00

Peak level 100.0 %
Extraction speed 5.7 X
Track quality 100.0 %
Test CRC A9400A45
Copy CRC A9400A45
Track not present in AccurateRip database
Copy OK

Track 2

Filename P:\02 - Conquistador.wav

Peak level 100.0 %
Extraction speed 5.5 X
Track quality 99.9 %
Test CRC 1D19FA71
Copy CRC 1D19FA71
Track not present in AccurateRip database
Copy OK

Track 3

Filename P:\03 - Up In The Air.wav

Peak level 100.0 %
Extraction speed 6.2 X
Track quality 100.0 %
Test CRC 23B413F2
Copy CRC 23B413F2
Track not present in AccurateRip database
Copy OK

Track 4

Filename P:\04 - City of Angels.wav

Peak level 100.0 %
Extraction speed 6.2 X
Track quality 100.0 %
Test CRC 1C30EBAB
Copy CRC 1C30EBAB
Track not present in AccurateRip database
Copy OK

Track 5

Filename P:\05 - The Race.wav

Peak level 100.0 %
Extraction speed 6.0 X
Track quality 100.0 %
Test CRC C8FD75D8
Copy CRC C8FD75D8
Track not present in AccurateRip database
Copy OK

Track 6

Filename P:\06 - End of All Days.wav

Peak level 100.0 %
Extraction speed 6.1 X
Track quality 100.0 %
Test CRC 213081EF
Copy CRC 213081EF
Track not present in AccurateRip database
Copy OK

Track 7

Filename P:\07 - Pires of Varanasi.wav

Peak level 100.0 %
Extraction speed 6.0 X
Track quality 100.0 %
Test CRC 20FD11D0
Copy CRC 20FD11D0
Track not present in AccurateRip database
Copy OK

Track 8

Filename P:\08 - Bright Lights.wav

Peak level 100.0 %
Extraction speed 6.1 X
Track quality 100.0 %
Test CRC 3A0BC9F2
Copy CRC 3A0BC9F2
Track not present in AccurateRip database
Copy OK

Track 9

Filename P:\09 - Do or Die.wav

Peak level 100.0 %
Extraction speed 6.1 X
Track quality 100.0 %
Test CRC E66C8E7B
Copy CRC E66C8E7B
Track not present in AccurateRip database
Copy OK

Track 10

Filename P:10 - Convergence.wav

Peak level 100.0 %
Extraction speed 5.8 X
Track quality 100.0 %
Test CRC 0B65C059
Copy CRC 0B65C059
Track not present in AccurateRip database
Copy OK

Track 11

Filename P:11 - Northern Lights.wav

Peak level 100.0 %
Extraction speed 5.6 X
Track quality 99.9 %
Test CRC 026E1771
Copy CRC 026E1771
Track not present in AccurateRip database
Copy OK

Track 12

Filename P:12 - Depuis le Début.wav

Peak level 100.0 %
Extraction speed 2.6 X
Track quality 99.9 %
Test CRC 17715C3B
Copy CRC 17715C3B
Track not present in AccurateRip database
Copy OK

None of the tracks are present in the AccurateRip database

No errors occurred

End of status report

---- CUETools DB Plugin V2.1.4

[CTDB TOCID: 3vZTtomUTy5SkRDHGV5sQvbobzw-] found
Submit result: 3vZTtomUTy5SkRDHGV5sQvbobzw- has been confirmed
Track | CTDB Status
1 | (2/2) Accurately ripped
2 | (2/2) Accurately ripped
3 | (2/2) Accurately ripped
4 | (2/2) Accurately ripped
5 | (2/2) Accurately ripped
6 | (2/2) Accurately ripped
7 | (2/2) Accurately ripped
8 | (2/2) Accurately ripped
9 | (2/2) Accurately ripped
10 | (2/2) Accurately ripped
11 | (2/2) Accurately ripped
12 | (2/2) Accurately ripped

==== Log checksum 49E0B30264BA06EC815461B2E1E27429295E83D308B64537DBC8FCADA7695682 ====

REM GENRE Rock
REM DATE 2013
REM DISCID B60A850C
REM COMMENT "ExactAudioCopy v1.0b3"
PERFORMER "Thirty Seconds to Mars"
TITLE "Love Lust Faith + Dreams"
FILE "01 - Birth.wav" WAVE
TRACK 01 AUDIO
TITLE "Birth"
PERFORMER "Thirty Seconds to Mars"
INDEX 01 00:00:00
FILE "02 - Conquistador.wav" WAVE
TRACK 02 AUDIO
TITLE "Conquistador"
PERFORMER "Thirty Seconds to Mars"
INDEX 01 00:00:00
FILE "03 - Up In The Air.wav" WAVE
TRACK 03 AUDIO
TITLE "Up In The Air"
PERFORMER "Thirty Seconds to Mars"
INDEX 01 00:00:00
FILE "04 - City of Angels.wav" WAVE
TRACK 04 AUDIO
TITLE "City of Angels"
PERFORMER "Thirty Seconds to Mars"
INDEX 01 00:00:00
FILE "05 - The Race.wav" WAVE
TRACK 05 AUDIO
TITLE "The Race"
PERFORMER "Thirty Seconds to Mars"
INDEX 01 00:00:00
FILE "06 - End of All Days.wav" WAVE
TRACK 06 AUDIO
TITLE "End of All Days"
PERFORMER "Thirty Seconds to Mars"
INDEX 01 00:00:00
FILE "07 - Pires of Varanasi.wav" WAVE
TRACK 07 AUDIO
TITLE "Pires of Varanasi"
PERFORMER "Thirty Seconds to Mars"
INDEX 01 00:00:00
FILE "08 - Bright Lights.wav" WAVE
TRACK 08 AUDIO
TITLE "Bright Lights"
PERFORMER "Thirty Seconds to Mars"
INDEX 01 00:00:00
FILE "09 - Do or Die.wav" WAVE
TRACK 09 AUDIO
TITLE "Do or Die"
PERFORMER "Thirty Seconds to Mars"
INDEX 01 00:00:00
FILE "10 - Convergence.wav" WAVE
TRACK 10 AUDIO
TITLE "Convergence"
PERFORMER "Thirty Seconds to Mars"
INDEX 01 00:00:00
FILE "11 - Northern Lights.wav" WAVE
TRACK 11 AUDIO
TITLE "Northern Lights"
PERFORMER "Thirty Seconds to Mars"
INDEX 01 00:00:00
FILE "12 - Depuis le Début.wav" WAVE
TRACK 12 AUDIO
TITLE "Depuis le Début"
PERFORMER "Thirty Seconds to Mars"
INDEX 01 00:00:00
pb.wtf



Скачать 30 Seconds to Mars - Love Lust Faith + Dreams 2013 FLAC через торрент http://i4.imageban.ru/out/2012/07/28/3987449d5f35a3102ce1ffa90d3bd191.jpg Скачать фильм 30 Seconds to Mars - Love Lust Faith + Dreams 2013 FLAC через торрент бесплантно в хорошем качестве Треклист Birth (2:07) Conquistador (3:12) Up in the Air (4:36) City of Angels (5:02) The Race (3:40) End of All Days ... 10 10 4
Info! Золотая раздача, скачанное не засчитывается.
Торрент: Зарегистрирован [2013-06-22 22:31] · скачан: 130 раз
Статус: √ проверено
Размер: 314 MB
Как cкачать? Как скачать 30 Seconds to Mars - Love Lust Faith + Dreams 2013 FLAC через торрент | qTorrent

28-11-2019 20:33  

Отключить всю рекламу на сайте

    Дорогой пользователь! Огромная просьба, поблагодарите релизера, оцените раздачу и оставьте свои комментарий, если Вы скачали 30 Seconds to Mars - Love Lust Faith + Dreams 2013 FLAC через торрент бесплатно! Внесите свою лепту в развитие PiratBit!
    Комментировать посты могут только пользователи прошедшие не сложную регистрацию
    Показать сообщения:    

    30 Seconds to Mars - Love Lust Faith + Dreams 2013 FLAC через торрент
    Скачать бесплатно 30 Seconds to Mars - Love Lust Faith + Dreams 2013 FLAC
    30 Seconds to Mars - Love Lust Faith + Dreams 2013 FLAC скачать торрент
    30 Seconds to Mars - Love Lust Faith + Dreams 2013 FLAC смотреть онлайн
    Cкачать фильм 30 Seconds to Mars - Love Lust Faith + Dreams 2013 FLAC бесплатно
    30 Seconds to Mars - Love Lust Faith + Dreams 2013 FLAC скачать торрент в хорошем качестве
    30 Seconds to Mars - Love Lust Faith + Dreams 2013 FLAC смотреть онлайн бесплатно в хорошем качестве


    Вы не можете начинать темы
    Вы не можете отвечать на сообщения
    Вы не можете редактировать свои сообщения
    Вы не можете удалять свои сообщения
    Вы не можете голосовать в опросах
    Вы не можете прикреплять файлы к сообщениям
    Вы можете скачивать файлы