1 сезон

1 сезон

iTunes

1

КиноПоиск HD

Кинопоиск HD

iTunes

13

1 сезон

RePack

30

Новинка

ВАЖНО

ИГРА 18+

pack

RePack

MK11
pack

Легкие деньги

RePack

jed

RePack

fifa19

RePack

RDR2

RePack

NEED FOR SPEED™ PAYBACK

4 сезон

9 сезон

Бесстыжие 9 сезон

Все сериалы

все сериалы на PB.wtf

RePack

FAR CRY 5
  
Magnet ссылка

Корсиканец / L' Enquête corse (Ален Берберян) [2004 г., боевик, комедия, криминал, BDRip, Дубляж] pb.wtf

Корсиканец через торрент pb.wtf

Размер: 1.45 GB | Добавлен: 7 лет 9 мес. назад | Торрент скачан:108 раз
Скачать  

23-06-2013 12:46 Корсиканец Скачать торрент  

Корсиканец / L' Enquête corse Год выпуска: 2004
Страна: Франция
Производство: Gaumont, Légende Productions
Жанр: боевик, комедия, криминал
Продолжительность: 01:33:18
Перевод: Дубляж

Режиссер: Ален Берберян
Продюссер: Ален Голдман, Катрин Морисс
Сценарий: Кристиан Клавье, Мишель Делгадо, Петильон
Премьера в мире: 6 октября 2004



В ролях: Кристиан Клавье, Жан Рено, Катерина Мурино, Дидье Фламан, Пьер Саласка, Эрик Фратичелли, Ален Маратрат, Франсуа Орсони, Натанаэль Маини, Альбер Дрэ, Геннадий Богачёв, Виктор Костецкий, Вадим Никитин, Сергей Дьячков, Валерий Соловьев

Описание: Парижский нотариус поручает знаменитому детективу и любимцу женщин Джеку Палмеру разыскать на Корсике своего пропавшего клиента, мсье Леони. Приехав на Остров красоты, детектив Палмер быстро превращается из восторженного туриста в решительного бойца, а с виду легкая развлекательная поездка оборачивается рискованной шпионской миссией...



Сэмпл / Трейлер

  • Качество: BDRip
  • Формат: AVI
  • Видео кодек: XviD
  • Аудио кодек: AC3
  • Видео: MPEG4, XviD, 720x304 (2.35:1), 24.000 fps, 1 774 Kbps (0.338 bit/pixel)
  • Аудио: AC-3, 48.0 KHz, 6 ch, 448 Kbps, CBR (Russian)
    Формат : AVI
    Формат/Информация : Audio Video Interleave
    Размер файла : 1,45 Гбайт
    Продолжительность : 1 ч. 33 м.
    Общий поток : 2231 Кбит/сек
    Название фильма : L' Enquete corse
    Жанр : Action, Comedy, Crime
    Программа кодирования : VirtualDubMod 1.5.10.3| (build 2550/release)
    Формат оригинала/Имя : Movie
    Правообладатель : Rip prepared for piratbit.cc
    Примечание : Rip ot kep

    Видео
    Идентификатор : 0
    Формат : MPEG-4 Visual
    Профиль формата : Advanced Simple@L5
    Параметр BVOP формата : 1
    Параметр QPel формата : Нет
    Параметр GMC формата : Без точки перехода
    Параметр матрицы формата : Default (MPEG)
    Идентификатор кодека : XVID
    Идентификатор кодека/Подсказка : XviD
    Продолжительность : 1 ч. 33 м.
    Битрейт : 1774 Кбит/сек
    Ширина : 720 пикселей
    Высота : 304 пикселя
    Соотношение сторон : 2,35:1
    Частота кадров : 24,000 кадра/сек
    Цветовое пространство : YUV
    Субдискретизация насыщенности : 4:2:0
    Битовая глубина : 8 бит
    Тип развёртки : Прогрессивная
    Метод сжатия : С потерями
    Бит/(Пиксели*Кадры) : 0.338
    Размер потока : 1,16 Гбайт (79%)
    Библиотека кодирования : XviD 1.2.1 (UTC 2008-12-04)

    Аудио
    Идентификатор : 1
    Формат : AC-3
    Формат/Информация : Audio Coding 3
    Расширение режима : CM (complete main)
    Параметр Endianness формата : Big
    Идентификатор кодека : 2000
    Продолжительность : 1 ч. 33 м.
    Вид битрейта : Постоянный
    Битрейт : 448 Кбит/сек
    Каналы : 6 каналов
    Расположение каналов : Front: L C R, Side: L R, LFE
    Частота : 48,0 КГц
    Битовая глубина : 16 бит
    Метод сжатия : С потерями
    Размер потока : 299 Мбайт (20%)
    Выравнивание : Разделение по промежуткам
    Продолжительность промежутка : 42 мс. (1,00 видеокадр)
    Время предзагрузки промежутка : 500 мс.
    скриншот   скриншот   скриншот   скриншот   скриншот   pb.wtf



  • Скачать Корсиканец через торрент http://i2.imageban.ru/out/2013/06/23/d3de0a4b604fe8f73cd035ccf218cbdc.png Скачать фильм Корсиканец через торрент бесплантно в хорошем качестве Описание: Парижский нотариус поручает знаменитому детективу и любимцу женщин Джеку Палмеру разыскать на Корсике своего пропавшего клиента, ... 10 10 8
    Info! Золотая раздача, скачанное не засчитывается.
    Торрент: Зарегистрирован [2013-06-23 12:46] · скачан: 108 раз
    Статус: √ проверено
    Размер: 1.45 GB
    Как cкачать? Как скачать Корсиканец через торрент | UTorrent

    28-11-2019 20:33  

    Отключить всю рекламу на сайте

    10-08-2013 21:38 Корсиканец Скачать торрент  

    Кульный фильм!pb.wtf



      Дорогой пользователь! Огромная просьба, поблагодарите релизера, оцените раздачу и оставьте свои комментарий, если Вы скачали Корсиканец через торрент бесплатно! Внесите свою лепту в развитие PiratBit!
      Комментировать посты могут только пользователи прошедшие не сложную регистрацию
      Показать сообщения:    

      Корсиканец через торрент
      Скачать бесплатно Корсиканец
      Корсиканец скачать торрент
      Корсиканец смотреть онлайн
      Cкачать фильм Корсиканец бесплатно
      Корсиканец скачать торрент в хорошем качестве
      Корсиканец смотреть онлайн бесплатно в хорошем качестве


      Вы не можете начинать темы
      Вы не можете отвечать на сообщения
      Вы не можете редактировать свои сообщения
      Вы не можете удалять свои сообщения
      Вы не можете голосовать в опросах
      Вы не можете прикреплять файлы к сообщениям
      Вы можете скачивать файлы