Death Stranding+DLC+АВТОАКТИВАЦИЯ

iTunes

iTunes

iTunes

1

iTunes

iTunes

iTunes

iTunes

iTunes

30
pack

$ от Little Big

ВАЖНО

!!Акция!!

Alien_RageХит недели

RePack

Resident Evil 21

ИГРА 18+

pack

RePack

jed

!!Акция!!

Alien_Rage

RePack

fifa19

RePack

Assassins Creed: Odyssey

RePack

NEED FOR SPEED™ PAYBACK

4 сезон

9 сезон

Бесстыжие 9 сезон

Все сериалы

все сериалы на PB.wtf

RePack

FAR CRY 5
  

Зубастики / Critters (Стивен Херек / Stephen Herek) [1986, США, ужасы, фантастика, комедия, WEB-DL 720p] DVO + AVO (Гаврилов) + original (eng) + sub (rus, ukr, eng) pb.wtf

Зубастики через торрент pb.wtf

Размер: 3.14 GB | Добавлен: 7 лет назад | Торрент скачан:157 раз
Скачать  

23-06-2013 20:14 Зубастики Скачать торрент  

Зубастики / Critters


  • Год выпуска:1986
  • Страна: США
  • Жанр:ужасы, фантастика, боевик, триллер, комедия
  • Продолжительность: 01:22:23
  • Перевод:Профессиональный (двухголосый)
  • Перевод2: Авторский (одноголосый закадровый)(А.Гаврилов)

  • Субтитры: русские, украинские, английские
    • Режиссер: Стивен Херек / Stephen Herek
    • Продюсер: Руперт Харви / Rupert Harvey, Бэрри Оппер / Barry Opper, Сара Ришер / Sara Risher, Роберт Шэй / Robert Shaye
    • Сценарий:Домоник Мюр / Domonic Muir, Стивен Херек / Stephen Herek, Дон Кит Оппер / Don Keith Opper

  • В ролях:Ди Уоллес-Стоун (Helen Brown), М. Эммет Уолш (Harv), Билли Грин Буш (Jay Brown), Скотт Граймз (Brad Brown), Надин Ван дер Велде (April Brown), Дон Кит Оппер (Charlie McFadden), Билли Зейн (Steve Elliot), Итэн Филлипс (Jeff Barnes), Терренс Манн (Johnny Steele / Ug), Джереми Лоуренс (Reverend Miller), Лин Шэй (Sally), Майкл Ли Годжин (Warden Zanti)
    • Описание:
      Они не вышли ростом, но по свирепости с ними не сравнится ни одно земное существо - это Зубастики! Мохнатые безжалостные твари с ужасающей пастью прибыли из космоса, чтобы уничтожить цивилизацию людей.
      И начали они с обычной сельской фермы в Канзасе, где сжирают всё, что попадается им на зуб (в том числе и людей). Хорошо, что в космосе есть ещё и отважные герои, которые приходят на помощь перепуганным местным жителям. Только объединенные усилия и хитроумная стратегия помогут победить прожорливых инопланетных зверушек.

  • Рейтинг
    kinopoisk.ru: 6.858 (5538)
    imdb.com: 5.80 (15 679)
    MPAA: PG-13 - Детям до 13 лет просмотр не желателен
    • Качество: WEB-DL 720p(HD4FUN)
    • Формат: MKV
    • Видео кодек: H.264
    • Аудио кодек: AC3
    • Видео: AVC, 1280x720 (16:9), 4001 kbps, 25 fps, 0,174 bpp
    • Аудио №1: русский / AC3 / 5.1 / 48 kHz / 448 kbps / 16 bit || (MVO)
      Аудио №2: русский / AC3 / 5.1 / 48 kHz / 448 kbps / 16 bit || (Гаврилов)
      Аудио №3: английский / AC3 / 5.1 / 48 kHz / 448 kbps / 16 bit (Оригинал)

    General
    Unique ID : 243635300547900716283480295493353399019 (0xB74A73BBBE81837A951C6A484B98E2EB)
    Complete name : D:ТорентыCritters.1986.720p.WEB-DL.2xRus.Eng.mkv
    Format : Matroska
    Format version : Version 2
    File size : 3.14 GiB
    Duration : 1h 22mn
    Overall bit rate : 5 454 Kbps
    Encoded date : UTC 2013-02-11 20:54:42
    Writing application : mkvmerge v5.3.0 ('I could have danced') built on Feb 9 2012 10:38:07
    Writing library : libebml v1.2.3 + libmatroska v1.3.0

    Video
    ID : 1
    Format : AVC
    Format/Info : Advanced Video Codec
    Format profile : High@L3.1
    Format settings, CABAC : No
    Format settings, ReFrames : 2 frames
    Codec ID : V_MPEG4/ISO/AVC
    Duration : 1h 22mn
    Bit rate : 4 002 Kbps
    Width : 1 280 pixels
    Height : 720 pixels
    Display aspect ratio : 16:9
    Frame rate : 25.000 fps
    Color space : YUV
    Chroma subsampling : 4:2:0
    Bit depth : 8 bits
    Scan type : Progressive
    Bits/(Pixel*Frame) : 0.174
    Stream size : 2.30 GiB (73%)
    Default : Yes
    Forced : No
    Color primaries : BT.709-5, BT.1361, IEC 61966-2-4, SMPTE RP177
    Transfer characteristics : BT.709-5, BT.1361
    Matrix coefficients : BT.709-5, BT.1361, IEC 61966-2-4 709, SMPTE RP177

    Audio #1
    ID : 2
    Format : AC-3
    Format/Info : Audio Coding 3
    Mode extension : CM (complete main)
    Codec ID : A_AC3
    Duration : 1h 22mn
    Bit rate mode : Constant
    Bit rate : 448 Kbps
    Channel(s) : 6 channels
    Channel positions : Front: L C R, Side: L R, LFE
    Sampling rate : 48.0 KHz
    Bit depth : 16 bits
    Compression mode : Lossy
    Stream size : 264 MiB (8%)
    Title : Inis AC3 5.1 448 kbps
    Language : Russian
    Default : Yes
    Forced : No

    Audio #2
    ID : 3
    Format : AC-3
    Format/Info : Audio Coding 3
    Mode extension : CM (complete main)
    Codec ID : A_AC3
    Duration : 1h 22mn
    Bit rate mode : Constant
    Bit rate : 448 Kbps
    Channel(s) : 6 channels
    Channel positions : Front: L C R, Side: L R, LFE
    Sampling rate : 48.0 KHz
    Bit depth : 16 bits
    Compression mode : Lossy
    Stream size : 264 MiB (8%)
    Title : Gavrilov AC3 5.1 448 kbps
    Language : Russian
    Default : No
    Forced : No

    Audio #3
    ID : 4
    Format : AC-3
    Format/Info : Audio Coding 3
    Mode extension : CM (complete main)
    Codec ID : A_AC3
    Duration : 1h 22mn
    Bit rate mode : Constant
    Bit rate : 448 Kbps
    Channel(s) : 6 channels
    Channel positions : Front: L C R, Side: L R, LFE
    Sampling rate : 48.0 KHz
    Bit depth : 16 bits
    Compression mode : Lossy
    Stream size : 264 MiB (8%)
    Title : Original AC3 5.1 448 kbps
    Language : English
    Default : No
    Forced : No

    Text #1
    ID : 5
    Format : UTF-8
    Codec ID : S_TEXT/UTF8
    Codec ID/Info : UTF-8 Plain Text
    Language : Russian
    Default : No
    Forced : No

    Text #2
    ID : 6
    Format : UTF-8
    Codec ID : S_TEXT/UTF8
    Codec ID/Info : UTF-8 Plain Text
    Language : Ukrainian
    Default : No
    Forced : No

    Text #3
    ID : 7
    Format : UTF-8
    Codec ID : S_TEXT/UTF8
    Codec ID/Info : UTF-8 Plain Text
    Language : English
    Default : No
    Forced : No

    Menu
    00:00:00.000 : en:SPACE FUGITIVES/TITLE
    00:04:57.000 : en:RISE AND SHINE
    00:08:18.000 : en:STRANGE FREQUENCY
    00:10:32.000 : en:EDUCATIONAL VIDEOS
    00:13:20.000 : en:GROUNDED FOR LIFE
    00:17:28.000 : en:MEET THE PARENTS
    00:22:26.000 : en:EARTHQUAKE OR METEOR
    00:25:59.000 : en:FEEDING TIME
    00:31:25.000 : en:HELP FROM ABOVE
    00:37:51.000 : en:A ROLL IN THE HAY
    00:41:05.000 : en:BIBLICAL PROPORTIONS
    00:43:08.000 : en:THEY HAVE WEAPONS
    00:47:41.000 : en:BOUNTY HUNTER BOWLING
    00:52:28.000 : en:CRITTER IN THE HOUSE
    00:55:17.000 : en:POLICE REPORT
    00:57:03.000 : en:BRAD'S RIDE
    01:01:32.000 : en:THE EXTERMINATORS
    01:06:47.000 : en:RESCUE MISSION
    01:15:41.000 : en:HOME IMPROVEMENT
    01:18:19.000 : en:END CREDITS
    Сценарий: Домоник Мюр / Domonic Muir, Стивен Херек / Stephen Herek, Дон Кит Оппер / Don Keith Opper
    Продюсер: Руперт Харви / Rupert Harvey, Бэрри Оппер / Barry Opper, Сара Ришер / Sara Risher, Роберт Шэй / Robert Shaye
    Оператор: Тим Сёрстедт / Tim Suhrstedt
    Композитор: Дэвид Ньюман / David Newman

    Бюджет: $2 000 000
    Сборы в США: $13 167 232

    Мировая премьера: 11 апреля 1986
    Релиз на DVD: 29 апреля 2008, «Союз-Видео»



    © Оформление&Постер by Vetalpb.wtf



  • Скачать Зубастики через торрент http://i6.imageban.ru/out/2013/06/24/e63c40b6da36a93d07a4c75216632a85.png Скачать фильм Зубастики через торрент бесплантно в хорошем качестве Описание:Они не вышли ростом, но по свирепости с ними не сравнится ни одно земное существо - это Зубастики! Мохнатые безжалостные твари с ... 9.8 10 6
    Info! Золотая раздача, скачанное не засчитывается.
    Торрент: Зарегистрирован [2013-06-23 20:14] · скачан: 157 раз
    Статус: √ проверено
    Размер: 3.14 GB
    Как cкачать? Как скачать Зубастики через торрент | qTorrent

    % Раздел Тема Автор DL S | L
    Фильмы [HD 720p, 1080p] (Хороший звук DUB, MVO) [ 6.09 GB ] Зубастики 4 / Critters 4 [1992 BDRip 720p] 2xDVO + MVO + 5xAVO - KORSAR kisa1980 Скачать
    1 | 0
    Фильмы [HD 720p, 1080p] (Хороший звук DUB, MVO) [ 5.92 GB ] Зубастики 3 / Critters 3 [1991 BDRip 720p] 3xDVO + MVO + 5xAVO - KORSAR kisa1980 Скачать
    1 | 0
    Фильмы [HD 720p, 1080p] (Хороший звук DUB, MVO) [ 5.7 GB ] Зубастики 2: Основное блюдо / Critters 2 [1988 BDRip 720p] 2xDVO + MVO + 2xAVO - KORSAR kisa1980 Скачать
    1 | 0
    Фильмы [HD 720p, 1080p] (Хороший звук DUB, MVO) [ 5.75 GB ] Зубастики / Critters [1986 BDRip 720p] DVO + MVO + 3xAVO - KORSAR kisa1980 Скачать
    1 | 0
    Фильмы с авторской озвучкой [ 4.3 GB ] Зубастики атакуют! / Critters Attack! [2019 BDRip 720p] AVO [А.Важенин [BadBajo] bober100 Скачать
    1 | 0
    Фильмы с авторской озвучкой [ 8.33 GB ] Зубастики атакуют! / Critters Attack! [2019 BDRip 1080p] AVO [А.Важенин [BadBajo] bober100 Скачать
    1 | 0
    T Фильмы (мультфильмы) cо спонсором показа (Новинки AVI/MKV) [ 1.37 GB ] Зубастики атакуют! / Critters Attack! [2019 DVDRip] MVO ["Синема УС"] bober100 Скачать
    2 | 0


    Последний раз редактировалось: Ворон (2013-07-24 14:20), всего редактировалось 1 раз

    28-11-2019 20:33  

    Отключить всю рекламу на сайте

    24-06-2013 02:36 Зубастики Скачать торрент  

    Ахахахах самый первый мой фильм фантастика страшилкаpb.wtf



      Дорогой пользователь! Огромная просьба, поблагодарите релизера, оцените раздачу и оставьте свои комментарий, если Вы скачали Зубастики через торрент бесплатно! Внесите свою лепту в развитие PiratBit!
      Комментировать посты могут только пользователи прошедшие не сложную регистрацию
      Показать сообщения:    

      Зубастики через торрент
      Скачать бесплатно Зубастики
      Зубастики скачать торрент
      Зубастики смотреть онлайн
      Cкачать фильм Зубастики бесплатно
      Зубастики скачать торрент в хорошем качестве
      Зубастики смотреть онлайн бесплатно в хорошем качестве


      Вы не можете начинать темы
      Вы не можете отвечать на сообщения
      Вы не можете редактировать свои сообщения
      Вы не можете удалять свои сообщения
      Вы не можете голосовать в опросах
      Вы не можете прикреплять файлы к сообщениям
      Вы можете скачивать файлы