Ссылка на приватное зеркало всего за 1$. Внимание количество ограничено!!!

iTunes

iTunes

iTunes

1

iTunes

iTunes

iTunes

iTunes

iTunes

30
pack

$ от Little Big

ВАЖНО

!!Акция!!

Alien_RageХит недели

RePack

Resident Evil 21

ИГРА 18+

pack

RePack

jed

!!Акция!!

Alien_Rage

RePack

fifa19

RePack

Assassins Creed: Odyssey

RePack

NEED FOR SPEED™ PAYBACK

4 сезон

9 сезон

Бесстыжие 9 сезон

Все сериалы

все сериалы на PB.wtf

RePack

FAR CRY 5
  

Зубастики 3: в Лос-Анджелесе / Critters 3: You Are What They Eat (Кристин Петерсон / Kristine Peterson) [1991, США, фантастика, ужасы, комедия, WEB-DL 720p] 3x DVO + VO (Сафронов) + 3x AVO (Гаврилов, Кузнецов, Горчаков) + orig (eng) + sub (rus, eng) pb.wtf

Зубастики 3: в Лос-Анджелесе через торрент pb.wtf

Размер: 3.76 GB | Добавлен: 7 лет назад | Торрент скачан:131 раз
Скачать  

23-06-2013 20:14 Зубастики 3: в Лос-Анджелесе Скачать торрент  

Зубастики 3 / Critters 3


  • Год выпуска:1991
  • Страна: США
  • Жанр:ужасы, фантастика, триллер, комедия
  • Продолжительность: 01:21:20
  • Перевод:Профессиональный (двухголосый)(Студия Инис по заказу Союз-Видео)
  • Перевод2: Профессиональный (двухголосый закадровый)(ГТРК Россия)
  • Перевод3: Профессиональный (двухголосый закадровый)
  • Перевод4: Одноголосый (закадровый)(И.Сафронов)
  • Перевод5: Авторский (одноголосый закадровый)(А.Гаврилов)
  • Перевод6: Авторский (одноголосый закадровый)(С.Кузнецов)
  • Перевод7: Авторский (одноголосый закадровый)(В.Горчаков)
  • Субтитры: русские, английские
    • Режиссер: Кристин Питерсон / Kristine Peterson
    • Продюсер: Руперт Харви / Rupert Harvey, Бэрри Оппер / Barry Opper, Марк Ордески / Mark Ordesky
    • Сценарий:Дэвид Дж. Шоу / David J. Schow, Руперт Харви / Rupert Harvey, Бэрри Оппер / Barry Opper

  • В ролях:Джон Кэлвин (Clifford), Айми Брукс (Annie), Кристиан Казинс (Johnny #1), Джозеф Казинс (Johnny #2), Уильям Дэннис Хант (Mr. Briggs), Нина Аксельрод (Betty Briggs), Леонардо ДиКаприо (Josh), Дон Кит Оппер (Charlie McFadden), Джеффри Блейк (Frank Longo), Хосе Луис Валансуэла (Mario), Диана Беллами (Rosalie), Кэтрин Кортес (Marcia)
    • Описание:
      На этот раз мохнатые пришельцы из космоса захватывают дом в Лос-Анджелесе. Они выгоняют на улицу всех его обитателей. Космический Охотник встает на их защиту и сам становится дичью, которую Зубастики преследуют во всех таинственных уголках дома...

  • Рейтинг
    kinopoisk.ru: 5.551 (3163)
    imdb.com: 3.80 (5 520)
    MPAA: PG-13 - Детям до 13 лет просмотр не желателен
    • Качество: WEB-DL 720p(HD4FUN)
    • Формат: MKV
    • Видео кодек: AVC
    • Аудио кодек: AC3
    • Видео: AVC, 1280x720 (16:9), 4121 kbps, 25 fps, 0,179 bpp
    • Аудио №1: русский / AC3 / 5.1 / 48 kHz / 448 kbps / 16 bit || (Инис)
      Аудио №2: русский / AC3 / 2.0 / 48 kHz / 192 kbps / 16 bit || (ГТРК Россия)
      Аудио №3: русский / AC3 / 5.1 / 48 kHz / 448 kbps / 16 bit || (DVO3)
      Аудио №4: русский / AC3 / 2.0 / 48 kHz / 192 kbps / 16 bit || (Сафронов)
      Аудио №5: русский / AC3 / 2.0 / 48 kHz / 192 kbps / 16 bit || (Гаврилов)
      Аудио №6: русский / AC3 / 2.0 / 48 kHz / 224 kbps / 16 bit || (Кузнецов)
      Аудио №7: русский / AC3 / 2.0 / 48 kHz / 224 kbps / 16 bit || (Горчаков)
      Аудио №8: английский / AC3 / 5.1 / 48 kHz / 448 kbps / 16 bit (Оригинал)

    General
    Unique ID : 237047046676623647532771979539181396395 (0xB25599BD23FFB12192C48B976FF6E1AB)
    Complete name : D:ТорентыCritters.3.1991.720p.WEB-DL.7xRus.Eng.mkv
    Format : Matroska
    Format version : Version 2
    File size : 3.76 GiB
    Duration : 1h 21mn
    Overall bit rate : 6 621 Kbps
    Movie name : Critters 3
    Encoded date : UTC 2013-03-10 08:27:06
    Writing application : mkvmerge v5.3.0 ('I could have danced') built on Feb 9 2012 10:38:07
    Writing library : libebml v1.2.3 + libmatroska v1.3.0

    Video
    ID : 1
    Format : AVC
    Format/Info : Advanced Video Codec
    Format profile : High@L3.1
    Format settings, CABAC : No
    Format settings, ReFrames : 2 frames
    Codec ID : V_MPEG4/ISO/AVC
    Duration : 1h 21mn
    Bit rate : 4 121 Kbps
    Width : 1 280 pixels
    Height : 720 pixels
    Display aspect ratio : 16:9
    Frame rate : 25.000 fps
    Color space : YUV
    Chroma subsampling : 4:2:0
    Bit depth : 8 bits
    Scan type : Progressive
    Bits/(Pixel*Frame) : 0.179
    Stream size : 2.34 GiB (62%)
    Default : No
    Forced : No
    Color primaries : BT.709-5, BT.1361, IEC 61966-2-4, SMPTE RP177
    Transfer characteristics : BT.709-5, BT.1361
    Matrix coefficients : BT.709-5, BT.1361, IEC 61966-2-4 709, SMPTE RP177

    Audio #1
    ID : 2
    Format : AC-3
    Format/Info : Audio Coding 3
    Mode extension : CM (complete main)
    Codec ID : A_AC3
    Duration : 1h 21mn
    Bit rate mode : Constant
    Bit rate : 448 Kbps
    Channel(s) : 6 channels
    Channel positions : Front: L C R, Side: L R, LFE
    Sampling rate : 48.0 KHz
    Bit depth : 16 bits
    Compression mode : Lossy
    Stream size : 261 MiB (7%)
    Title : DVO Inis AC3 5.1 448 kbps
    Language : Russian
    Default : No
    Forced : No

    Audio #2
    ID : 3
    Format : AC-3
    Format/Info : Audio Coding 3
    Mode extension : CM (complete main)
    Codec ID : A_AC3
    Duration : 1h 21mn
    Bit rate mode : Constant
    Bit rate : 192 Kbps
    Channel(s) : 2 channels
    Channel positions : Front: L R
    Sampling rate : 48.0 KHz
    Bit depth : 16 bits
    Compression mode : Lossy
    Stream size : 112 MiB (3%)
    Title : DVO Russia AC3 2.0 192 kbps
    Language : Russian
    Default : No
    Forced : No

    Audio #3
    ID : 4
    Format : AC-3
    Format/Info : Audio Coding 3
    Mode extension : CM (complete main)
    Codec ID : A_AC3
    Duration : 1h 21mn
    Bit rate mode : Constant
    Bit rate : 448 Kbps
    Channel(s) : 6 channels
    Channel positions : Front: L C R, Side: L R, LFE
    Sampling rate : 48.0 KHz
    Bit depth : 16 bits
    Compression mode : Lossy
    Stream size : 261 MiB (7%)
    Title : DVO3 AC3 5.1 448 kbps
    Language : Russian
    Default : No
    Forced : No

    Audio #4
    ID : 5
    Format : AC-3
    Format/Info : Audio Coding 3
    Mode extension : CM (complete main)
    Codec ID : A_AC3
    Duration : 1h 21mn
    Bit rate mode : Constant
    Bit rate : 192 Kbps
    Channel(s) : 2 channels
    Channel positions : Front: L R
    Sampling rate : 48.0 KHz
    Bit depth : 16 bits
    Compression mode : Lossy
    Stream size : 112 MiB (3%)
    Title : Safronov AC3 2.0 192 kbps
    Language : Russian
    Default : No
    Forced : No

    Audio #5
    ID : 6
    Format : AC-3
    Format/Info : Audio Coding 3
    Mode extension : CM (complete main)
    Codec ID : A_AC3
    Duration : 1h 21mn
    Bit rate mode : Constant
    Bit rate : 192 Kbps
    Channel(s) : 2 channels
    Channel positions : Front: L R
    Sampling rate : 48.0 KHz
    Bit depth : 16 bits
    Compression mode : Lossy
    Stream size : 112 MiB (3%)
    Title : Gavrilov AC3 2.0 192 kbps
    Language : Russian
    Default : No
    Forced : No

    Audio #6
    ID : 7
    Format : AC-3
    Format/Info : Audio Coding 3
    Mode extension : CM (complete main)
    Codec ID : A_AC3
    Duration : 1h 21mn
    Bit rate mode : Constant
    Bit rate : 224 Kbps
    Channel(s) : 2 channels
    Channel positions : Front: L R
    Sampling rate : 48.0 KHz
    Bit depth : 16 bits
    Compression mode : Lossy
    Stream size : 130 MiB (3%)
    Title : Kuznetsov AC3 2.0 224 kbps
    Language : Russian
    Default : No
    Forced : No

    Audio #7
    ID : 8
    Format : AC-3
    Format/Info : Audio Coding 3
    Mode extension : CM (complete main)
    Codec ID : A_AC3
    Duration : 1h 21mn
    Bit rate mode : Constant
    Bit rate : 224 Kbps
    Channel(s) : 2 channels
    Channel positions : Front: L R
    Sampling rate : 48.0 KHz
    Bit depth : 16 bits
    Compression mode : Lossy
    Stream size : 130 MiB (3%)
    Title : Gorchakov AC3 2.0 224 kbps
    Language : Russian
    Default : No
    Forced : No

    Audio #8
    ID : 9
    Format : AC-3
    Format/Info : Audio Coding 3
    Mode extension : CM (complete main)
    Codec ID : A_AC3
    Duration : 1h 21mn
    Bit rate mode : Constant
    Bit rate : 448 Kbps
    Channel(s) : 6 channels
    Channel positions : Front: L C R, Side: L R, LFE
    Sampling rate : 48.0 KHz
    Bit depth : 16 bits
    Compression mode : Lossy
    Stream size : 261 MiB (7%)
    Title : Original AC3 5.1 448 kbps
    Language : English
    Default : No
    Forced : No

    Text #1
    ID : 10
    Format : UTF-8
    Codec ID : S_TEXT/UTF8
    Codec ID/Info : UTF-8 Plain Text
    Language : Russian
    Default : No
    Forced : No

    Text #2
    ID : 11
    Format : UTF-8
    Codec ID : S_TEXT/UTF8
    Codec ID/Info : UTF-8 Plain Text
    Language : English
    Default : No
    Forced : No

    Menu
    00:00:00.000 : en:Chapter 1
    00:10:08.900 : en:Chapter 2
    00:19:23.300 : en:Chapter 3
    00:28:50.100 : en:Chapter 4
    00:38:49.500 : en:Chapter 5
    00:47:59.000 : en:Chapter 6
    00:57:49.800 : en:Chapter 7
    01:07:54.000 : en:Chapter 8
    01:17:35.160 : en:Chapter 9
    Сценарий: Дэвид Дж. Шоу / David J. Schow, Руперт Харви / Rupert Harvey, Бэрри Оппер / Barry Opper
    Продюсер: Руперт Харви / Rupert Harvey, Бэрри Оппер / Barry Opper, Марк Ордески / Mark Ordesky
    Оператор: Томас Л. Колэуэй / Thomas L. Callaway
    Композитор: Дэвид С. Уильямс / David C. Williams

    Мировая премьера: 11 декабря 1991
    Релиз на DVD: 22 мая 2008, «Союз-Видео»



    © Оформление&Постер by Vetalpb.wtf



  • Скачать Зубастики 3: в Лос-Анджелесе через торрент http://i3.imageban.ru/out/2013/06/24/6b2ae969c7deb56d4fb92203c7fc8cf1.png Скачать фильм Зубастики 3: в Лос-Анджелесе через торрент бесплантно в хорошем качестве Описание:На этот раз мохнатые пришельцы из космоса захватывают дом в Лос-Анджелесе. Они выгоняют на улицу всех его обитателей. Космический ... 9.8 10 4
    Info! Золотая раздача, скачанное не засчитывается.
    Торрент: Зарегистрирован [2013-06-23 20:14] · скачан: 131 раз
    Статус: √ проверено
    Размер: 3.76 GB
    Как cкачать? Как скачать Зубастики 3: в Лос-Анджелесе через торрент | qTorrent

    28-11-2019 20:33  

    Отключить всю рекламу на сайте

      Дорогой пользователь! Огромная просьба, поблагодарите релизера, оцените раздачу и оставьте свои комментарий, если Вы скачали Зубастики 3: в Лос-Анджелесе через торрент бесплатно! Внесите свою лепту в развитие PiratBit!
      Комментировать посты могут только пользователи прошедшие не сложную регистрацию
      Показать сообщения:    

      Зубастики 3: в Лос-Анджелесе через торрент
      Скачать бесплатно Зубастики 3: в Лос-Анджелесе
      Зубастики 3: в Лос-Анджелесе скачать торрент
      Зубастики 3: в Лос-Анджелесе смотреть онлайн
      Cкачать фильм Зубастики 3: в Лос-Анджелесе бесплатно
      Зубастики 3: в Лос-Анджелесе скачать торрент в хорошем качестве
      Зубастики 3: в Лос-Анджелесе смотреть онлайн бесплатно в хорошем качестве


      Вы не можете начинать темы
      Вы не можете отвечать на сообщения
      Вы не можете редактировать свои сообщения
      Вы не можете удалять свои сообщения
      Вы не можете голосовать в опросах
      Вы не можете прикреплять файлы к сообщениям
      Вы можете скачивать файлы