Ссылка на приватное зеркало всего за 1$. Внимание количество ограничено!!!

iTunes

iTunes

iTunes

1

iTunes

iTunes

iTunes

iTunes

iTunes

30
pack

$ от Little Big

ВАЖНО

!!Акция!!

Alien_RageХит недели

RePack

Resident Evil 21

ИГРА 18+

pack

RePack

jed

!!Акция!!

Alien_Rage

RePack

fifa19

RePack

Assassins Creed: Odyssey

RePack

NEED FOR SPEED™ PAYBACK

4 сезон

9 сезон

Бесстыжие 9 сезон

Все сериалы

все сериалы на PB.wtf

RePack

FAR CRY 5
  

Зубастики 4: в космосе / Critters 4: They're Invading Your Space (Руперт Харви / Rupert Harvey) [1992, США, фантастика, ужасы, комедия, WEB-DL 720p] DVO + 4xAVO (Дохалов, Горчаков, Кузнецов, Живов) + VO (Белов) + original (eng) + sub (rus, eng) pb.wtf

Зубастики 4: в космосе через торрент pb.wtf

Размер: 3.87 GB | Добавлен: 7 лет назад | Торрент скачан:137 раз
Скачать  

23-06-2013 20:14 Зубастики 4: в космосе Скачать торрент  

Зубастики 4 / Critters 4


  • Год выпуска:1991
  • Страна: США
  • Жанр:ужасы, фантастика, триллер, комедия
  • Продолжительность: 01:30:42
  • Перевод 1:Профессиональный (двухголосый)(Студия Инис по заказу Союз-Видео)
  • Перевод2: Авторский (одноголосый закадровый)(В.Дохалов)
  • Перевод3: Авторский (одноголосый закадровый)(В.Горчаков)
  • Перевод4: Одноголосый (закадровый)(С.Белов (Зереницын))
  • Перевод5: Авторский (одноголосый закадровый)(С.Кузнецов)
  • Перевод6: Авторский (одноголосый закадровый)(Ю.Живов)

  • Субтитры: русские, английские
    • Режиссер: Руперт Харви / Rupert Harvey
    • Продюсер: Руперт Харви / Rupert Harvey, Бэрри Оппер / Barry Opper, Марк Ордески / Mark Ordesky
    • Сценарий:Джозеф Лайл / Joseph Lyle, Дэвид Дж. Шоу / David J. Schow, Руперт Харви / Rupert Harvey, Бэрри Оппер / Barry Opper

  • В ролях:Дон Кит Оппер (Charlie McFadden), Терренс Манн (Counselor Tetra / Ug), Пол Уайтторн (Ethan), Андерс Хове (Rick), Анджела Бассетт (Fran), Брэд Дуриф (Al Bert), Эрик ДаРе (Bernie), Мартин Бесвик (Angela, озвучка), Энн Рэмси (Dr. McCormick)
    • Описание:
      2045 год. На космический корабль с экспедицией землян попадает неопознанный летающий объект. Злодей капитан вскрывает его, и оттуда появляются маленькие обжоры, начав быстро размножаться. Космическому охотнику Чарли опять приходится вступать в дело...

  • Рейтинг
    kinopoisk.ru: 4.896 (1383)
    imdb.com: 3.60 (3 239)
    MPAA: PG-13 - Детям до 13 лет просмотр не желателен
    • Качество: WEB-DL 720p(HD4FUN)
    • Формат: MKV
    • Видео кодек:AVC
    • Аудио кодек: AC3
    • Видео: AVC, 1280x686 (1.866), 4124 kbps, 25 fps, 0,188 bpp
    • Аудио №1: русский / AC3 / 5.1 / 48 kHz / 448 kbps / 16 bit || (Инис)
      Аудио №2: русский / AC3 / 2.0 / 48 kHz / 192 kbps / 16 bit || (Дохалов)
      Аудио №3: русский / AC3 / 2.0 / 48 kHz / 192 kbps / 16 bit || (Горчаков)
      Аудио №4: русский / AC3 / 2.0 / 48 kHz / 192 kbps / 16 bit || (Белов)
      Аудио №5: русский / AC3 / 2.0 / 48 kHz / 192 kbps / 16 bit || (Кузнецов)
      Аудио №6: русский / AC3 / 2.0 / 48 kHz / 192 kbps / 16 bit || (Живов)
      Аудио №7: английский / AC3 / 5.1 / 48 kHz / 448 kbps / 16 bit (Оригинал)

    General
    Unique ID : 208099549251113037058034842898646077692 (0x9C8E83ECC5E8A22F9C3B2590678690FC)
    Complete name : D:ТорентыCritters.4.1992.720p.WEB-DL.6xRus.Eng.mkv
    Format : Matroska
    Format version : Version 2
    File size : 3.87 GiB
    Duration : 1h 30mn
    Overall bit rate : 6 101 Kbps
    Movie name : Critters 4
    Encoded date : UTC 2013-03-24 07:16:29
    Writing application : mkvmerge v5.3.0 ('I could have danced') built on Feb 9 2012 10:38:07
    Writing library : libebml v1.2.3 + libmatroska v1.3.0

    Video
    ID : 1
    Format : AVC
    Format/Info : Advanced Video Codec
    Format profile : High@L3.1
    Format settings, CABAC : No
    Format settings, ReFrames : 2 frames
    Muxing mode : Header stripping
    Codec ID : V_MPEG4/ISO/AVC
    Duration : 1h 30mn
    Bit rate : 4 124 Kbps
    Width : 1 280 pixels
    Height : 686 pixels
    Display aspect ratio : 1.866
    Frame rate : 25.000 fps
    Color space : YUV
    Chroma subsampling : 4:2:0
    Bit depth : 8 bits
    Scan type : Progressive
    Bits/(Pixel*Frame) : 0.188
    Stream size : 2.61 GiB (68%)
    Default : Yes
    Forced : No
    Color primaries : BT.709-5, BT.1361, IEC 61966-2-4, SMPTE RP177
    Transfer characteristics : BT.709-5, BT.1361
    Matrix coefficients : BT.709-5, BT.1361, IEC 61966-2-4 709, SMPTE RP177

    Audio #1
    ID : 2
    Format : AC-3
    Format/Info : Audio Coding 3
    Mode extension : CM (complete main)
    Muxing mode : Header stripping
    Codec ID : A_AC3
    Duration : 1h 30mn
    Bit rate mode : Constant
    Bit rate : 448 Kbps
    Channel(s) : 6 channels
    Channel positions : Front: L C R, Side: L R, LFE
    Sampling rate : 48.0 KHz
    Bit depth : 16 bits
    Compression mode : Lossy
    Stream size : 291 MiB (7%)
    Title : Inis AC3 5.1 448 kbps
    Language : Russian
    Default : No
    Forced : No

    Audio #2
    ID : 3
    Format : AC-3
    Format/Info : Audio Coding 3
    Mode extension : CM (complete main)
    Muxing mode : Header stripping
    Codec ID : A_AC3
    Duration : 1h 30mn
    Bit rate mode : Constant
    Bit rate : 192 Kbps
    Channel(s) : 2 channels
    Channel positions : Front: L R
    Sampling rate : 48.0 KHz
    Bit depth : 16 bits
    Compression mode : Lossy
    Stream size : 125 MiB (3%)
    Title : Dokhalov AC3 2.0 192 kbps
    Language : Russian
    Default : No
    Forced : No

    Audio #3
    ID : 4
    Format : AC-3
    Format/Info : Audio Coding 3
    Mode extension : CM (complete main)
    Muxing mode : Header stripping
    Codec ID : A_AC3
    Duration : 1h 30mn
    Bit rate mode : Constant
    Bit rate : 192 Kbps
    Channel(s) : 2 channels
    Channel positions : Front: L R
    Sampling rate : 48.0 KHz
    Bit depth : 16 bits
    Compression mode : Lossy
    Stream size : 125 MiB (3%)
    Title : Gorchakov AC3 2.0 192 kbps
    Language : Russian
    Default : No
    Forced : No

    Audio #4
    ID : 5
    Format : AC-3
    Format/Info : Audio Coding 3
    Mode extension : CM (complete main)
    Muxing mode : Header stripping
    Codec ID : A_AC3
    Duration : 1h 30mn
    Bit rate mode : Constant
    Bit rate : 192 Kbps
    Channel(s) : 2 channels
    Channel positions : Front: L R
    Sampling rate : 48.0 KHz
    Bit depth : 16 bits
    Compression mode : Lossy
    Stream size : 125 MiB (3%)
    Title : Belov AC3 2.0 192 kbps
    Language : Russian
    Default : No
    Forced : No

    Audio #5
    ID : 6
    Format : AC-3
    Format/Info : Audio Coding 3
    Mode extension : CM (complete main)
    Muxing mode : Header stripping
    Codec ID : A_AC3
    Duration : 1h 30mn
    Bit rate mode : Constant
    Bit rate : 192 Kbps
    Channel(s) : 2 channels
    Channel positions : Front: L R
    Sampling rate : 48.0 KHz
    Bit depth : 16 bits
    Compression mode : Lossy
    Stream size : 125 MiB (3%)
    Title : Kuznetsov AC3 2.0 192 kbps
    Language : Russian
    Default : No
    Forced : No

    Audio #6
    ID : 7
    Format : AC-3
    Format/Info : Audio Coding 3
    Mode extension : CM (complete main)
    Muxing mode : Header stripping
    Codec ID : A_AC3
    Duration : 1h 30mn
    Bit rate mode : Constant
    Bit rate : 192 Kbps
    Channel(s) : 2 channels
    Channel positions : Front: L R
    Sampling rate : 48.0 KHz
    Bit depth : 16 bits
    Compression mode : Lossy
    Stream size : 125 MiB (3%)
    Title : Zhivov AC3 2.0 192 kbps
    Language : Russian
    Default : No
    Forced : No

    Audio #7
    ID : 8
    Format : AC-3
    Format/Info : Audio Coding 3
    Mode extension : CM (complete main)
    Muxing mode : Header stripping
    Codec ID : A_AC3
    Duration : 1h 30mn
    Bit rate mode : Constant
    Bit rate : 448 Kbps
    Channel(s) : 6 channels
    Channel positions : Front: L C R, Side: L R, LFE
    Sampling rate : 48.0 KHz
    Bit depth : 16 bits
    Compression mode : Lossy
    Stream size : 291 MiB (7%)
    Title : Original AC3 5.1 448 kbps
    Language : English
    Default : No
    Forced : No

    Text #1
    ID : 9
    Format : UTF-8
    Codec ID : S_TEXT/UTF8
    Codec ID/Info : UTF-8 Plain Text
    Language : Russian
    Default : No
    Forced : No

    Text #2
    ID : 10
    Format : UTF-8
    Codec ID : S_TEXT/UTF8
    Codec ID/Info : UTF-8 Plain Text
    Language : English
    Default : No
    Forced : No

    Menu
    00:00:00.000 : en:1
    00:08:09.000 : en:2
    00:12:34.000 : en:3
    00:19:50.000 : en:4
    00:24:55.000 : en:5
    00:26:49.000 : en:6
    00:29:34.000 : en:7
    00:33:35.000 : en:8
    00:37:24.000 : en:9
    00:41:41.000 : en:10
    00:45:15.000 : en:11
    00:48:37.000 : en:12
    00:50:37.000 : en:13
    00:53:44.000 : en:14
    00:59:49.000 : en:15
    01:02:45.000 : en:16
    01:07:12.000 : en:17
    01:11:59.000 : en:18
    01:24:01.000 : en:19
    01:26:59.000 : en:20
    Сценарий: Джозеф Лайл / Joseph Lyle, Дэвид Дж. Шоу / David J. Schow, Руперт Харви / Rupert Harvey, Бэрри Оппер / Barry Opper
    Продюсер: Руперт Харви / Rupert Harvey, Бэрри Оппер / Barry Opper, Марк Ордески / Mark Ordesky
    Оператор: Томас Л. Колэуэй / Thomas L. Callaway
    Композитор: Питер Мэннинг Робинсон / Peter Manning Robinson

    Мировая премьера: 20 августа 1992
    Релиз на DVD: 22 мая 2008, «Союз-Видео»




    © Оформление&Постер by Vetalpb.wtf



  • Скачать Зубастики 4: в космосе через торрент http://i3.imageban.ru/out/2013/06/24/6e08ef4e84eb3635a772e236abc94289.png Скачать фильм Зубастики 4: в космосе через торрент бесплантно в хорошем качестве Описание:2045 год. На космический корабль с экспедицией землян попадает неопознанный летающий объект. Злодей капитан вскрывает его, и ... 9.7 10 7
    Info! Золотая раздача, скачанное не засчитывается.
    Торрент: Зарегистрирован [2013-06-23 20:14] · скачан: 137 раз
    Статус: √ проверено
    Размер: 3.87 GB
    Как cкачать? Как скачать Зубастики 4: в космосе через торрент | qTorrent

    28-11-2019 20:33  

    Отключить всю рекламу на сайте

      Дорогой пользователь! Огромная просьба, поблагодарите релизера, оцените раздачу и оставьте свои комментарий, если Вы скачали Зубастики 4: в космосе через торрент бесплатно! Внесите свою лепту в развитие PiratBit!
      Комментировать посты могут только пользователи прошедшие не сложную регистрацию
      Показать сообщения:    

      Зубастики 4: в космосе через торрент
      Скачать бесплатно Зубастики 4: в космосе
      Зубастики 4: в космосе скачать торрент
      Зубастики 4: в космосе смотреть онлайн
      Cкачать фильм Зубастики 4: в космосе бесплатно
      Зубастики 4: в космосе скачать торрент в хорошем качестве
      Зубастики 4: в космосе смотреть онлайн бесплатно в хорошем качестве


      Вы не можете начинать темы
      Вы не можете отвечать на сообщения
      Вы не можете редактировать свои сообщения
      Вы не можете удалять свои сообщения
      Вы не можете голосовать в опросах
      Вы не можете прикреплять файлы к сообщениям
      Вы можете скачивать файлы