Мега распродажа FORZA HORIZON 4 ULTIMATE+ВСЕ DLC+ОНЛАЙН всего за 499р. 349 руб. (супер цена). Внимание количество ограничено!!!

Лицензия

30

iTunes

мы

iTunes

1

1 сезон

Чернобыль

1 сезон

Ральф против интернета

MVO

Покемон. Детектив Пикачу

8 сезон

Игра престолов

iTunes

1+1

ИГРА 18+

pack

ВАЖНО

!!Акция!!

Alien_RageХит недели

RePack

Resident Evil 21
pack

RePack

Metro:Exodus

!!Акция!!

Alien_Rage

RePack

fifa19

RePack

Assassins Creed: Odyssey

RePack

NEED FOR SPEED™ PAYBACK

3 сезон

9 сезон

Бесстыжие 9 сезон

Все сериалы

все сериалы на PB.wtf

RePack

FAR CRY 5
Ребята, катастрофически не хватает 2730р. для оплаты серверов за МАЙ (всвязи с блокировками трафик упал в 3 раза), 1-2р., выручайте.
  

Уличный боец / Street Fighter: The Legend of Chun-Li (Анджей Бартковяк / Andrzej Bartkowiak) [2009, США, Канада, Боевик, Фэнтези, HDRip] MVO pb.wtf

Уличный боец через торрент pb.wtf

Размер: 1.37 GB | Добавлен: 5 лет 11 мес. назад | Торрент скачан:73 раза
Скачать  

24-06-2013 12:27 Уличный боец Скачать торрент  

Уличный боец / Street Fighter: The Legend of Chun-Li


  • Год выпуска:2009
  • Страна: США, Канада
  • Жанр:фэнтези, боевик, триллер, криминал
  • Продолжительность: 01:35:55
  • Перевод:Профессиональный (многоголосый, закадровый)Студия "Лексикон" по заказу компании "Парадиз"

  • Субтитры: Нет
    • Режиссер: Анджей Бартковяк / Andrzej Bartkowiak
    • Продюсер: Патрик Айелло / Patrick Aiello, Ашок Амритрадж / Ashok Amritraj, Маню Гарги / Manu Gargi, Дэвид Харфильд / David Harfield, Кейдзи Инафуне / Keiji Inafune
    • Сценарий:Джастин Маркс / Justin Marks

  • В ролях:Кристин Кройк (Chun-Li), Крис Клейн (Charlie Nash), Нил МакДонаф (Bison / Vega, (Japan)), Робин Шоу (Gen), Мун Бладгуд (Det. Maya Sunee), Джози Хо (Cantana), Табу (Vega / Balrog, (Japan)), Майкл Кларк Дункан (Balrog / Bison, (Japan)), Пеи-пеи Ченг (Zhilan), Эдмунд Чэнь (Xiang), Инез Ян (Chun-Li, (5 yrs)), Елизавета Кирюхина (Rose)
    • Описание:
      Прекрасная Чун-Ли, владеющая искусством восточных единоборств, поклялась отомстить... Планомерно, одного за другим она убивает главарей преступных группировок, виновных в гибели своего отца.

  • Рейтинг
    kinopoisk.ru: 4.315 (2608)
    imdb.com: 3.70 (15 224)
    MPAA: PG-13 - Детям до 13 лет просмотр не желателен
    • Качество: HDRip
    • Формат: AVI
    • Видео кодек: XviD
    • Аудио кодек: AC3
    • Видео: XviD, 720x304 (2.35:1), 1647 kbps, 24 fps, 0,314 bpp
    • Аудио: AC3 / 5.1 / 48 kHz / 384 kbps / 16 bit

    General
    Complete name : D:ТорентыStreet.Fighter.The.Legend.Of.Chun.Li.2009.XviD.HDRip.avi
    Format : AVI
    Format/Info : Audio Video Interleave
    File size : 1.37 GiB
    Duration : 1h 35mn
    Overall bit rate : 2 041 Kbps
    Movie name : Street.Fighter.The.Legend.Of.Chun.Li.2009.P.HDRip.[uniongang.tv]

    Genre : Action/Crime/Fantasy
    Writing application : VirtualDubMod 1.5.10.2 (build 2540/release)
    Original source form/Name : Movie

    Video
    ID : 0
    Format : MPEG-4 Visual
    Format profile : Advanced Simple@L5
    Format settings, BVOP : 4
    Format settings, QPel : No
    Format settings, GMC : No warppoints
    Format settings, Matrix : Default (MPEG)
    Codec ID : XVID
    Codec ID/Hint : XviD
    Duration : 1h 35mn
    Bit rate : 1 647 Kbps
    Width : 720 pixels
    Height : 304 pixels
    Display aspect ratio : 2.35:1
    Frame rate : 24.000 fps
    Color space : YUV
    Chroma subsampling : 4:2:0
    Bit depth : 8 bits
    Scan type : Progressive
    Compression mode : Lossy
    Bits/(Pixel*Frame) : 0.314
    Stream size : 1.10 GiB (81%)
    Writing library : XviD 1.2.1 (UTC 2008-12-04)

    Audio
    ID : 1
    Format : AC-3
    Format/Info : Audio Coding 3
    Mode extension : CM (complete main)
    Codec ID : 2000
    Duration : 1h 35mn
    Bit rate mode : Constant
    Bit rate : 384 Kbps
    Channel(s) : 6 channels
    Channel positions : Front: L C R, Side: L R, LFE
    Sampling rate : 48.0 KHz
    Bit depth : 16 bits
    Compression mode : Lossy
    Stream size : 263 MiB (19%)
    Alignment : Split accross interleaves
    Interleave, duration : 42 ms (1.00 video frame)
    Interleave, preload duration : 500 ms
    • Фильм снят по мотивам серии компьютерных игр «Street Fighter» (1987 - н. в., Capcom).
    Сценарий: Джастин Маркс / Justin Marks
    Продюсер: Патрик Айелло / Patrick Aiello, Ашок Амритрадж / Ashok Amritraj, Маню Гарги / Manu Gargi, Дэвид Харфильд / David Harfield, Кейдзи Инафуне / Keiji Inafune
    Оператор: Джофф Бойл / Geoff Boyle
    Композитор: Стивен Эндельман / Stephen Endelman

    Бюджет: $50 000 000
    Сборы в США: $8 742 261
    Сборы в мире: $12 764 201

    Мировая премьера: 12 февраля 2009
    Релиз на DVD: 17 февраля 2011, «Парадиз Медиа»
    Релиз на Blu-ray: 17 февраля 2011, «Парадиз Медиа»






    © Оформление by Vetalpb.wtf



  • Скачать Уличный боец через торрент http://i3.imageban.ru/out/2013/06/24/6a43b141066cbe22e9290fef3991b899.jpg Скачать фильм Уличный боец через торрент бесплантно в хорошем качестве Описание:Прекрасная Чун-Ли, владеющая искусством восточных единоборств, поклялась отомстить... Планомерно, одного за другим она убивает ... 10 10 4
    Info! Золотая раздача, скачанное не засчитывается.
    Торрент: Зарегистрирован [2013-06-24 12:28] · скачан: 73 раз
    Статус: √ проверено
    Размер: 1.37 GB
    Как cкачать? Как скачать Уличный боец через торрент | qTorrent

    % Раздел Тема Автор DL S | L
    Фильмы 2009 [ 742 MB ] Уличный боец / Street Fighter: The Legend of Chun-Li [2009 HDRip] MVO Ворон Скачать
    1 | 0


    >> Регистрируемся здесь <<






    Отзывы и комментарии о схеме читаем и пишем здесь: ---> Отзывы и комментарии о схеме

    Новые благодарочки в телеграм довольных пользователей:
    скриншот   скриншот   скриншот   скриншот   скриншот

    24-06-2013 13:13 Уличный боец Скачать торрент  

    Фильм дерьмо полное. Позорище одним словом.pb.wtf



      Дорогой пользователь! Огромная просьба, поблагодарите релизера, оцените раздачу и оставьте свои комментарий, если Вы скачали Уличный боец через торрент бесплатно! Внесите свою лепту в развитие PiratBit!
      Комментировать посты могут только пользователи прошедшие не сложную регистрацию
      Показать сообщения:    

      Уличный боец через торрент
      Скачать бесплатно Уличный боец
      Уличный боец скачать торрент
      Уличный боец смотреть онлайн
      Cкачать фильм Уличный боец бесплатно
      Уличный боец скачать торрент в хорошем качестве
      Уличный боец смотреть онлайн бесплатно в хорошем качестве


      Вы не можете начинать темы
      Вы не можете отвечать на сообщения
      Вы не можете редактировать свои сообщения
      Вы не можете удалять свои сообщения
      Вы не можете голосовать в опросах
      Вы не можете прикреплять файлы к сообщениям
      Вы можете скачивать файлы