MEGA SALE -50% FORZA HORIZON 4 ULTIMATE+ВСЕ DLC+ОНЛАЙН всего за 599р. 299 руб. (супер цена). Внимание количество ограничено!!!

iTunes

1+1

iTunes

мы

iTunes

1

iTunes

Чернобыль

iTunes

Ральф против интернета

Лицензия

ПШазам

Лицензия

Игра престолов

Лицензия

30
pack

ВАЖНО

!!Акция!!

Alien_RageХит недели

RePack

Resident Evil 21

ИГРА 18+

pack

RePack

Metro:Exodus

!!Акция!!

Alien_Rage

RePack

fifa19

RePack

Assassins Creed: Odyssey

RePack

NEED FOR SPEED™ PAYBACK

3 сезон

9 сезон

Бесстыжие 9 сезон

Все сериалы

все сериалы на PB.wtf

RePack

FAR CRY 5
Ребята, катастрофически не хватает 7730р. для оплаты серверов за АВГУСТ (всвязи с блокировками трафик упал в 3 раза), 1-2р., выручайте.
  

Уличный боец / Street Fighter: The Legend of Chun-Li (Анджей Бартковяк / Andrzej Bartkowiak) [2009, США, Канада, Боевик, Фэнтези, HDRip] MVO pb.wtf

Уличный боец через торрент pb.wtf

Размер: 742 MB | Добавлен: 6 лет 2 мес. назад | Торрент скачан:98 раз
Скачать  

24-06-2013 12:32 Уличный боец Скачать торрент  

Уличный боец / Street Fighter: The Legend of Chun-Li


  • Год выпуска:2009
  • Страна: США, Канада
  • Жанр:фэнтези, боевик, триллер, криминал
  • Продолжительность: 01:35:55
  • Перевод:Профессиональный (многоголосый, закадровый)

  • Субтитры: Нет
    • Режиссер: Анджей Бартковяк / Andrzej Bartkowiak
    • Продюсер: Патрик Айелло / Patrick Aiello, Ашок Амритрадж / Ashok Amritraj, Маню Гарги / Manu Gargi, Дэвид Харфильд / David Harfield, Кейдзи Инафуне / Keiji Inafune
    • Сценарий:Джастин Маркс / Justin Marks

  • В ролях:Кристин Кройк (Chun-Li), Крис Клейн (Charlie Nash), Нил МакДонаф (Bison / Vega, (Japan)), Робин Шоу (Gen), Мун Бладгуд (Det. Maya Sunee), Джози Хо (Cantana), Табу (Vega / Balrog, (Japan)), Майкл Кларк Дункан (Balrog / Bison, (Japan)), Пеи-пеи Ченг (Zhilan), Эдмунд Чэнь (Xiang), Инез Ян (Chun-Li, (5 yrs)), Елизавета Кирюхина (Rose)
    • Описание:
      Прекрасная Чун-Ли, владеющая искусством восточных единоборств, поклялась отомстить... Планомерно, одного за другим она убивает главарей преступных группировок, виновных в гибели своего отца.

  • Рейтинг
    kinopoisk.ru: 4.315 (2608)
    imdb.com: 3.70 (15 224)
    MPAA: PG-13 - Детям до 13 лет просмотр не желателен
    • Качество: HDRip
    • Формат: AVI
    • Видео кодек: XviD
    • Аудио кодек: MP3
    • Видео: XviD, 720x304 (2.35:1), 944 kbps, 24 fps, 0,180 bpp
    • Аудио: MP3 / 2.0 / 48 kHz / 128 kbps /

    General
    Complete name : D:ТорентыУличный боец.avi
    Format : AVI
    Format/Info : Audio Video Interleave
    File size : 742 MiB
    Duration : 1h 35mn
    Overall bit rate : 1 082 Kbps
    Writing application : VirtualDubMod 1.5.10.2 (build 2540/release)
    Writing library : VirtualDubMod build 2540/release

    Video
    ID : 0
    Format : MPEG-4 Visual
    Format profile : Advanced Simple@L5
    Format settings, BVOP : 2
    Format settings, QPel : No
    Format settings, GMC : No warppoints
    Format settings, Matrix : Custom
    Codec ID : XVID
    Codec ID/Hint : XviD
    Duration : 1h 35mn
    Bit rate : 945 Kbps
    Width : 720 pixels
    Height : 304 pixels
    Display aspect ratio : 2.35:1
    Frame rate : 24.000 fps
    Color space : YUV
    Chroma subsampling : 4:2:0
    Bit depth : 8 bits
    Scan type : Progressive
    Compression mode : Lossy
    Bits/(Pixel*Frame) : 0.180
    Stream size : 648 MiB (87%)
    Writing library : XviD 1.2.1 (UTC 2008-12-04)

    Audio
    ID : 1
    Format : MPEG Audio
    Format version : Version 1
    Format profile : Layer 3
    Codec ID : 55
    Codec ID/Hint : MP3
    Duration : 1h 35mn
    Bit rate mode : Constant
    Bit rate : 128 Kbps
    Channel(s) : 2 channels
    Sampling rate : 48.0 KHz
    Compression mode : Lossy
    Stream size : 87.8 MiB (12%)
    Alignment : Aligned on interleaves
    Interleave, duration : 42 ms (1.00 video frame)
    Interleave, preload duration : 504 ms
    Writing library : LAME3.98r
    Encoding settings : -m s -V 4 -q 2 -lowpass 17 -b 128
    • Фильм снят по мотивам серии компьютерных игр «Street Fighter» (1987 - н. в., Capcom).
    Сценарий: Джастин Маркс / Justin Marks
    Продюсер: Патрик Айелло / Patrick Aiello, Ашок Амритрадж / Ashok Amritraj, Маню Гарги / Manu Gargi, Дэвид Харфильд / David Harfield, Кейдзи Инафуне / Keiji Inafune
    Оператор: Джофф Бойл / Geoff Boyle
    Композитор: Стивен Эндельман / Stephen Endelman

    Бюджет: $50 000 000
    Сборы в США: $8 742 261
    Сборы в мире: $12 764 201

    Мировая премьера: 12 февраля 2009
    Релиз на DVD: 17 февраля 2011, «Парадиз Медиа»
    Релиз на Blu-ray: 17 февраля 2011, «Парадиз Медиа»




    © Оформление by Vetalpb.wtf



  • Скачать Уличный боец через торрент http://i6.imageban.ru/out/2013/06/24/baf43983f292e56bd8f2d2871de815c9.jpg Скачать фильм Уличный боец через торрент бесплантно в хорошем качестве Описание:Прекрасная Чун-Ли, владеющая искусством восточных единоборств, поклялась отомстить... Планомерно, одного за другим она убивает ... 10 10 9
    Info! Золотая раздача, скачанное не засчитывается.
    Торрент: Зарегистрирован [2013-06-24 12:32] · скачан: 98 раз
    Статус: √ проверено
    Размер: 742 MB
    Как cкачать? Как скачать Уличный боец через торрент | qTorrent

    % Раздел Тема Автор DL S | L
    Фильмы 2009 [ 1.37 GB ] Уличный боец / Street Fighter: The Legend of Chun-Li [2009 HDRip] MVO Ворон Скачать
    1 | 0


    >> Регистрируемся здесь <<






    Отзывы и комментарии о схеме читаем и пишем здесь: ---> Отзывы и комментарии о схеме

    Новые благодарочки в телеграм довольных пользователей:
    скриншот   скриншот   скриншот   скриншот   скриншот

    24-06-2013 14:19 Уличный боец Скачать торрент  

    Спасибо за релиз!pb.wtf



    24-06-2013 15:02 Уличный боец Скачать торрент  

    Цитата:

    Знаете ли Вы, что...
    Фильм снят по мотивам серии компьютерных игр «Street Fighter» (1987 - н. в., Capcom).

    pb.wtf



      Дорогой пользователь! Огромная просьба, поблагодарите релизера, оцените раздачу и оставьте свои комментарий, если Вы скачали Уличный боец через торрент бесплатно! Внесите свою лепту в развитие PiratBit!
      Комментировать посты могут только пользователи прошедшие не сложную регистрацию
      Показать сообщения:    

      Уличный боец через торрент
      Скачать бесплатно Уличный боец
      Уличный боец скачать торрент
      Уличный боец смотреть онлайн
      Cкачать фильм Уличный боец бесплатно
      Уличный боец скачать торрент в хорошем качестве
      Уличный боец смотреть онлайн бесплатно в хорошем качестве


      Вы не можете начинать темы
      Вы не можете отвечать на сообщения
      Вы не можете редактировать свои сообщения
      Вы не можете удалять свои сообщения
      Вы не можете голосовать в опросах
      Вы не можете прикреплять файлы к сообщениям
      Вы можете скачивать файлы