Ссылка на приватное зеркало нашего сайта всего за 1$. Внимание количество ограничено!!!

2 сезон

iTunes

1 сезон

1

iTunes

iTunes

iTunes

1 сезон

RePack

30

ИГРА 18+

pack

ВАЖНО

!!Акция!!

Alien_RageХит недели

RePack

MK11
pack

Забери бонус

RePack

jed

!!Акция!!

Alien_Rage

RePack

fifa19

RePack

Assassins Creed: Odyssey

RePack

NEED FOR SPEED™ PAYBACK

4 сезон

9 сезон

Бесстыжие 9 сезон

Все сериалы

все сериалы на PB.wtf

RePack

FAR CRY 5
  

Боец / The Fighter (Дэвид О. Расселл / David O. Russell) [2010, США, драма, биография, спорт, BDRip 720p] DUB [лицензия ]+Оригинал pb.wtf

Боец через торрент pb.wtf

Размер: 8.97 GB | Добавлен: 7 лет 3 мес. назад | Торрент скачан:206 раз
Скачать  

24-06-2013 12:57 Боец Скачать торрент  

Боец / The Fighter


  • Год выпуска:2010
  • Страна: США
  • Жанр:драма, биография, спорт
  • Продолжительность: 01:55:38
  • Перевод:Профессиональный (полное дублирование)[Лицензия ]

  • Субтитры: русские, английские
    • Режиссер: Дэвид О. Расселл / David O. Russell
    • Продюсер: Пол Тэймеси / Paul Tamasy, Марк Уолберг / Mark Wahlberg, Дороти Офиеро / Dorothy Aufiero, Дэвид Хоберман / David Hoberman, Райан Кэвэна / Ryan Kavanaugh
    • Сценарий:Пол Тэймеси / Paul Tamasy, Эрик Джонсон / Eric Johnson, Скотт Сильвер / Scott Silver, Кит Доррингтон / Keith Dorrington

  • В ролях:Марк Уолберг (Micky Ward), Кристиан Бэйл (Dicky Eklund), Эми Адамс (Charlene Fleming), Мелисса Лео (Alice Ward), Джек МакГи (George Ward), Мики О’Кифи (Mickey O'Keefe), Мелисса МакМикин («Little Alice» Eklund), Бьянка Хантер (Cathy «Pork» Eklund), Эрика МакДермотт (Cindy «Tar» Eklund), Джилл Квигг (Donna Eklund Jaynes), Дендри Тейлор (Gail «Red Dog» Eklund), Кейт Б. О’Брайэн (Phyllis 'Beaver' Eklund)
    • Описание:
      Невероятная, но реальная история пути к званию чемпиона мира боксера Микки Уорда по кличке «Ирландец». Восхождение Уорда было похоже на восхождение легендарного Рокки. Парень из народа, между боями он трудился на дорожных работах.
      Пережив череду неудач и поражений, Микки сумел снова вернуться на ринг, когда его тренером стал сводный брат Дикки Эклунд, бывший боксер, карьера которого оборвалась из-за пристрастия к наркотикам. Помощь брата, любовь официантки Шарлин, забота матери и несгибаемая воля к победе позволили Уорду взойти на мировой пьедестал...

  • Рейтинг
    kinopoisk.ru: 7.951 (42 165)
    imdb.com: 7.90 (162 224)
    MPAA: R - Лицам до 17 лет обязательно присутствие взрослого
    • Качество: BDRip 720p
    • Формат: MKV
    • Видео кодек: H.264
    • Аудио кодек: DTS
    • Видео: AVC, 1280x534 (2.40:1), 8087 kbps, 23,976 fps, 0,493 bpp
    • Аудио №1: английский / DTS / 5.1 / 48 kHz / 1510 kbps / 24 bit
      Аудио №2: русский / DTS / 5.1 / 48 kHz / 1510 kbps / 24 bit ||

    General
    Unique ID : 245332983583211179173062777242239339996 (0xB89169F8290E816E9A24CCA84B1B8DDC)
    Complete name : D:ТорентыThe.Fighter.2010.720p.BluRay.DTS.x264-HiDt.mkv
    Format : Matroska
    Format version : Version 2
    File size : 8.97 GiB
    Duration : 1h 55mn
    Overall bit rate : 11.1 Mbps
    Encoded date : UTC 2011-04-22 17:07:41
    Writing application : mkvmerge v3.3.0 ('Language') built on Mar 24 2010 14:59:24
    Writing library : libebml v0.8.0 + libmatroska v0.9.0

    Video
    ID : 1
    Format : AVC
    Format/Info : Advanced Video Codec
    Format profile : High@L4.1
    Format settings, CABAC : Yes
    Format settings, ReFrames : 12 frames
    Codec ID : V_MPEG4/ISO/AVC
    Duration : 1h 55mn
    Bit rate : 8 087 Kbps
    Width : 1 280 pixels
    Height : 534 pixels
    Display aspect ratio : 2.40:1
    Frame rate : 23.976 fps
    Color space : YUV
    Chroma subsampling : 4:2:0
    Bit depth : 8 bits
    Scan type : Progressive
    Bits/(Pixel*Frame) : 0.493
    Stream size : 6.36 GiB (71%)
    Title : x264
    Writing library : x264 core 114 r1913 5fd3dce
    Encoding settings : cabac=1 / ref=12 / deblock=1:-3:-3 / analyse=0x3:0x113 / me=tesa / subme=10 / psy=1 / psy_rd=0.95:0.00 / mixed_ref=1 / me_range=32 / chroma_me=1 / trellis=2 / 8x8dct=1 / cqm=0 / deadzone=21,11 / fast_pskip=0 / chroma_qp_offset=-2 / threads=12 / sliced_threads=0 / nr=0 / decimate=1 / interlaced=0 / constrained_intra=0 / bframes=6 / b_pyramid=2 / b_adapt=2 / b_bias=0 / direct=3 / weightb=1 / open_gop=0 / weightp=2 / keyint=250 / keyint_min=23 / scenecut=40 / intra_refresh=0 / rc=2pass / mbtree=0 / bitrate=8087 / ratetol=1.0 / qcomp=0.60 / qpmin=0 / qpmax=69 / qpstep=4 / cplxblur=20.0 / qblur=0.5 / ip_ratio=1.40 / pb_ratio=1.30 / aq=1:0.80
    Language : English
    Default : No
    Forced : No

    Audio #1
    ID : 2
    Format : DTS
    Format/Info : Digital Theater Systems
    Codec ID : A_DTS
    Duration : 1h 55mn
    Bit rate mode : Constant
    Bit rate : 1 510 Kbps
    Channel(s) : 6 channels
    Channel positions : Front: L C R, Side: L R, LFE
    Sampling rate : 48.0 KHz
    Bit depth : 24 bits
    Compression mode : Lossy
    Stream size : 1.22 GiB (14%)
    Title : DTS 5.1
    Language : English
    Default : No
    Forced : No

    Audio #2
    ID : 3
    Format : DTS
    Format/Info : Digital Theater Systems
    Codec ID : A_DTS
    Duration : 1h 55mn
    Bit rate mode : Constant
    Bit rate : 1 510 Kbps
    Channel(s) : 6 channels
    Channel positions : Front: L C R, Side: L R, LFE
    Sampling rate : 48.0 KHz
    Bit depth : 24 bits
    Compression mode : Lossy
    Delay relative to video : 11ms
    Stream size : 1.22 GiB (14%)
    Title : Дубляж BD CEE
    Language : Russian
    Default : Yes
    Forced : Yes

    Text #1
    ID : 4
    Format : UTF-8
    Codec ID : S_TEXT/UTF8
    Codec ID/Info : UTF-8 Plain Text
    Language : Russian
    Default : No
    Forced : No

    Text #2
    ID : 5
    Format : UTF-8
    Codec ID : S_TEXT/UTF8
    Codec ID/Info : UTF-8 Plain Text
    Language : English
    Default : Yes
    Forced : No

    Menu
    00:00:00.000 : :Chapter 01
    00:07:11.180 : :Chapter 02
    00:16:34.201 : :Chapter 03
    00:22:32.351 : :Chapter 04
    00:28:34.754 : :Chapter 05
    00:36:20.678 : :Chapter 06
    00:43:16.802 : :Chapter 07
    00:51:54.945 : :Chapter 08
    01:00:48.144 : :Chapter 09
    01:07:08.274 : :Chapter 10
    01:13:04.463 : :Chapter 11
    01:20:43.505 : :Chapter 12
    01:25:03.890 : :Chapter 13
    01:33:54.045 : :Chapter 14
    01:40:13.757 : :Chapter 15
    01:50:18.528 : :Chapter 16
    • На роль Микки Уорда первоначально пробовался Майкл Фассбендер.
    • Кристиан Бэйл, дабы достичь большей достоверности в изображении кокаиниста Дикки Эклунда, сел на жесточайшую диету, питаясь лишь овощами и фруктами, хотя по контракту от него того не требовалось. Он настолько исхудал, что его партнёр Марк Уолберг публично выражал обеспокоенность состоянием его здоровья. Впрочем, Кристиану не впервой: подобной экзекуции он уже подвергал себя при работе над «Машинистом».
    • Актриса Мелисса Лео играет в фильме мать Бэйла, но в действительности старше Кристиана только на 13 полных лет.
    Сценарий: Пол Тэймеси / Paul Tamasy, Эрик Джонсон / Eric Johnson, Скотт Сильвер / Scott Silver, Кит Доррингтон / Keith Dorrington
    Продюсер: Пол Тэймеси / Paul Tamasy, Марк Уолберг / Mark Wahlberg, Дороти Офиеро / Dorothy Aufiero, Дэвид Хоберман / David Hoberman, Райан Кэвэна / Ryan Kavanaugh
    Оператор: Хойте Ван Хойтема / Hoyte Van Hoytema
    Композитор: Майкл Брук / Michael Brook

    Бюджет: $25 000 000
    Сборы в США: $93 617 009
    Сборы в России: $910 942
    Сборы в мире: $129 190 869

    Мировая премьера: 10 декабря 2010
    Релиз на DVD: 21 апреля 2011, «CP-Digital»
    Релиз на Blu-ray: 21 апреля 2011, «CP-Digital»




    © Оформление by Vetalpb.wtf



  • Скачать Боец через торрент http://i6.imageban.ru/out/2013/06/24/ebe7215975118051ac4b7973e630d462.jpg Скачать фильм Боец через торрент бесплантно в хорошем качестве Описание:Невероятная, но реальная история пути к званию чемпиона мира боксера Микки Уорда по кличке «Ирландец». Восхождение Уорда было ... 8.7 10 7
    Info! Золотая раздача, скачанное не засчитывается.
    Торрент: Зарегистрирован [2013-06-24 12:57] · скачан: 206 раз
    Статус: √ проверено
    Размер: 8.97 GB
    Как cкачать? Как скачать Боец через торрент | qTorrent

    28-11-2019 20:33  

    Отключить всю рекламу на сайте

      Дорогой пользователь! Огромная просьба, поблагодарите релизера, оцените раздачу и оставьте свои комментарий, если Вы скачали Боец через торрент бесплатно! Внесите свою лепту в развитие PiratBit!
      Комментировать посты могут только пользователи прошедшие не сложную регистрацию
      Показать сообщения:    

      Боец через торрент
      Скачать бесплатно Боец
      Боец скачать торрент
      Боец смотреть онлайн
      Cкачать фильм Боец бесплатно
      Боец скачать торрент в хорошем качестве
      Боец смотреть онлайн бесплатно в хорошем качестве


      Вы не можете начинать темы
      Вы не можете отвечать на сообщения
      Вы не можете редактировать свои сообщения
      Вы не можете удалять свои сообщения
      Вы не можете голосовать в опросах
      Вы не можете прикреплять файлы к сообщениям
      Вы можете скачивать файлы