Всегда рабочее зеркало без VPN и Proxy просто перед .vidak.icu напиши любое слово или цифру, Пример http://5y80.vidak.icu

MVO

MVO

1 сезон

1

1 сезон

iTunes

1 сезон

13

1 сезон

Deluxe

pack

Рекомендуем

Repack

30

ВАЖНО

RePack

MK11

RePack

jed

RePack

fifa19

RePack

RDR2

RePack

NEED FOR SPEED™ PAYBACK

Кинопоиск HD

6 сезон

 Острые козырьки 6 сезон

Все сериалы

все сериалы на PB.wtf

RePack

FAR CRY 5
  
Magnet ссылка

Королева Версаля / The Queen of Versailles (Лорен Гринфилд) [2012, Документальный, HDRip] MVO pb.wtf

Королева Версаля через торрент pb.wtf

Размер: 1.35 GB | Добавлен: 9 лет 1 мес. назад | Торрент скачан:21 раз
Смотреть онлайн Королева Версаля | Скачать    Ребята, помогите собрать деньги на оплату серверов!!!

24-06-2013 14:27 Королева Версаля Скачать торрент  

Королева Версаля / The Queen of Versailles


  • Год выпуска:2012
  • Страна: США, Нидерланды, Великобритания, Дания
  • Жанр:документальный
  • Продолжительность: 01:40:40
  • Перевод:Профессиональный многоголосый закадровый

  • Субтитры: Нет
    • Режиссер: Лорен Гринфилд / Lauren Greenfield
    • Продюсер: Даниэль Ренфрю / Danielle Renfrew, Лорен Гринфилд / Lauren Greenfield, Эллисон Амон / Allison Amon, Метте Хайди / Mette Heide, Rebecca Horn Black
    • В ролях:Virginia Nebab (играет саму себя - Nanny), Дэвид Сигел (играет самого себя), Жаклин Сигел (играет саму себя), Элис Цвик (Miss New York 2009 - играет саму себя)
      • Описание:
        Документальная лента о семье миллиардера в тисках экономического кризиса, снятая с поистине шекспировским размахом. История двух уникальных людей, ставших воплощением американской мечты.
        Джеки и Дэвид строят самый большой частный дом в Америке - настоящий Версаль площадью более восьми тысяч квадратных метров. Но их империя, основанная на дешевых деньгах и ценовом пузыре недвижимости, разваливается.

    • Рейтинг
      kinopoisk.ru: 7.000 (19)
      imdb.com: 7.00 (5 236)
      MPAA: PG - Рекомендуется присутствие родителей
      • Качество: HDRip
      • Формат: AVI
      • Видео кодек: XviD
      • Аудио кодек: MP3
      • Видео: XviD, 704x400 (16:9), 1784 kbps, 23,976 fps, 0,264 bpp
      • Аудио: MP3 / 2.0 / 48 kHz / 128 kbps /

      Общее
      Полное имя : D:ТорентыKoroleva.verslya.2012.XviD.HDRip.avi
      Формат : AVI
      Формат/Информация : Audio Video Interleave
      Размер файла : 1,35 Гбайт
      Продолжительность : 1 ч. 40 м.
      Общий поток : 1922 Кбит/сек
      Программа кодирования : Lavf55.8.100
      Библиотека кодирования : VirtualDub build 32842/release

      Видео
      Идентификатор : 0
      Формат : MPEG-4 Visual
      Профиль формата : Advanced [email protected]
      Параметр BVOP формата : 2
      Параметр QPel формата : Нет
      Параметр GMC формата : Без точки перехода
      Параметр матрицы формата : Default (H.263)
      Режим смешивания : Сжатый битовый поток
      Идентификатор кодека : XVID
      Идентификатор кодека/Подсказка : XviD
      Продолжительность : 1 ч. 40 м.
      Битрейт : 1784 Кбит/сек
      Ширина : 704 пикселя
      Высота : 400 пикселей
      Соотношение сторон : 16:9
      Частота кадров : 23,976 кадра/сек
      Цветовое пространство : YUV
      Субдискретизация насыщенности : 4:2:0
      Битовая глубина : 8 бит
      Тип развёртки : Прогрессивная
      Метод сжатия : С потерями
      Бит/(Пиксели*Кадры) : 0.264
      Размер потока : 1,25 Гбайт (93%)
      Библиотека кодирования : XviD 64

      Аудио
      Идентификатор : 1
      Формат : MPEG Audio
      Версия формата : Version 1
      Профиль формата : Layer 3
      Режим : Joint stereo
      Расширение режима : MS Stereo
      Идентификатор кодека : 55
      Идентификатор кодека/Подсказка : MP3
      Продолжительность : 1 ч. 40 м.
      Вид битрейта : Постоянный
      Битрейт : 128 Кбит/сек
      Каналы : 2 канала
      Частота : 48,0 КГц
      Метод сжатия : С потерями
      Размер потока : 92,2 Мбайт (7%)
      Выравнивание : Разделение по промежуткам
      Продолжительность промежутка : 42 мс. (1,00 видеокадр)
      Время предзагрузки промежутка : 500 мс.




      © Оформление by Vetalpb.wtf



  • Скачать Королева Версаля через торрент http://i3.imageban.ru/out/2013/06/24/56679e5a36caa29236ddd1e6ff9b141e.jpg Скачать, смотреть онлайн Королева Версаля бесплантно в хорошем качестве Описание:Документальная лента о семье миллиардера в тисках экономического кризиса, снятая с поистине шекспировским размахом. История двух ... 10 10 1
    Info! Золотая раздача, скачанное не засчитывается.
    Торрент: Зарегистрирован [2013-06-24 14:27] · скачан: 21 раз
    Статус: √ проверено
    Размер: 1.35 GB
    Как cкачать? Как скачать Королева Версаля через торрент | UTorrent

    % Раздел Тема Автор DL S | L
    Документальные фильмы и телепередачи [ 4.51 GB ] Королева Версаля / The Queen of Versailles [2012 документальный BDRip 720p] MVO Ворон Скачать
    1 | 0

    28-11-2019 20:33  

    Отключить вcю реклaмy на сайте

      Дорогой пользователь! Огромная просьба, поблагодарите релизера, оцените раздачу и оставьте свои комментарий, если Вы скачали Королева Версаля через торрент бесплатно!
      Комментировать посты могут только пользователи прошедшие не сложную регистрацию
      Показать сообщения:    

      Королева Версаля через торрент
      Скачать бесплатно Королева Версаля
      Королева Версаля скачать торрент
      Королева Версаля смотреть онлайн
      Cкачать фильм Королева Версаля бесплатно
      Королева Версаля скачать торрент в хорошем качестве
      Королева Версаля смотреть онлайн бесплатно в хорошем качестве


      Вы не можете начинать темы
      Вы не можете отвечать на сообщения
      Вы не можете редактировать свои сообщения
      Вы не можете удалять свои сообщения
      Вы не можете голосовать в опросах
      Вы не можете прикреплять файлы к сообщениям
      Вы можете скачивать файлы