Ссылка на приватное зеркало всего за 1$. Внимание количество ограничено!!!


iTunes

1+1

iTunes

мы

WEB-DL

1

iTunes

Чернобыль

iTunes

Ральф против интернета

Лицензия

ПШазам

Лицензия

Оно 2

WEB-DL

30
pack

Вам бонус

ВАЖНО

!!Акция!!

Alien_RageХит недели

RePack

Resident Evil 21

ИГРА 18+

pack

RePack

jed

!!Акция!!

Alien_Rage

RePack

fifa19

RePack

Assassins Creed: Odyssey

RePack

NEED FOR SPEED™ PAYBACK

4 сезон

9 сезон

Бесстыжие 9 сезон

Все сериалы

все сериалы на PB.wtf

RePack

FAR CRY 5
Ребята, катастрофически не хватает 1900р. для оплаты серверов за Октябрь (всвязи с блокировками трафик упал в 3 раза), 1-2р., выручайте.
  

Стрелок / Skytten (Аннетт К. Олесен) [2013 г., триллер, драма, криминал, HDRip, VO] pb.wtf

Стрелок через торрент pb.wtf

Размер: 1.45 GB | Добавлен: 6 лет 5 мес. назад | Торрент скачан:416 раз
Скачать  

25-06-2013 13:14 Стрелок Скачать торрент  

Стрелок / Skytten
Год выпуска: 2013
Страна: Дания / Nordisk Film A/S
Жанр: триллер, драма, криминал,
Продолжительность: 01:29:44
Перевод: Любительский одноголосый

Режиссер: Аннетт К. Олесен

Премьера в мире: 28 февраля 2013



В ролях: Карстен Бьорнлунн, Ким Бодния, Марина Бурас, Кеннет Кармон, Мари-Луиза Конинк, Оле Дюпон, Ида Двингер, Трине Дюрхольм, Камилла Готтлиб, Кристиан Халкен,

Описание: События фильма разворачиваются в Копенгагене в течение пяти дней. Население возмущено тем, что новое правительство нарушило обещания, которые они давали перед выборами. И теперь датские компании совместно с Соединенными Штатами начинают разработку нефтяных скважин в Гренландии. В центре событий оказывается олимпийский стрелок, ныне работающий геофизиком, который рассказывается общественным массам о небезопасности данного решения правительства.

Качество: HDRip
Формат: AVI
Видео кодек: XviD
Аудио кодек: AC3
Видео: 1862 Kb/s, 720x304, 25 fps
Аудио#1: AC3, 448 Kb/s (6 ch), 48 kHz

Общее
Полное имя : E:Download-UT++Skytten.2013.L1.HDRip.UnionGang.tv.avi
Формат : AVI
Формат/Информация : Audio Video Interleave
Размер файла : 1,45 Гбайт
Продолжительность : 1 ч. 29 м.
Общий поток : 2320 Кбит/сек
Программа кодирования : VirtualDubModRus 1.5.10.2 (build 2542/release)
Библиотека кодирования : VirtualDubMod build 2542/release

Видео
Идентификатор : 0
Формат : MPEG-4 Visual
Профиль формата : Advanced Simple@L5
Параметр BVOP формата : 2
Параметр QPel формата : Нет
Параметр GMC формата : Без точки перехода
Параметр матрицы формата : Выборочная
Идентификатор кодека : XVID
Идентификатор кодека/Подсказка : XviD
Продолжительность : 1 ч. 29 м.
Битрейт : 1863 Кбит/сек
Ширина : 720 пикселей
Высота : 304 пикселя
Соотношение сторон : 2,35:1
Частота кадров : 25,000 кадров/сек
Цветовое пространство : YUV
Субдискретизация насыщенности : 4:2:0
Битовая глубина : 8 бит
Тип развёртки : Прогрессивная
Метод сжатия : С потерями
Бит/(Пиксели*Кадры) : 0.340
Размер потока : 1,17 Гбайт (80%)
Библиотека кодирования : XviD 1.2.1 (UTC 2008-12-04)

Аудио
Идентификатор : 1
Формат : AC-3
Формат/Информация : Audio Coding 3
Расширение режима : CM (complete main)
Параметр Endianness формата : Big
Идентификатор кодека : 2000
Продолжительность : 1 ч. 29 м.
Вид битрейта : Постоянный
Битрейт : 448 Кбит/сек
Каналы : 6 каналов
Расположение каналов : Front: L C R, Side: L R, LFE
Частота : 48,0 КГц
Битовая глубина : 16 бит
Метод сжатия : С потерями
Размер потока : 288 Мбайт (19%)
Выравнивание : Разделение по промежуткам
Продолжительность промежутка : 40 мс. (1,00 видеокадр)
Время предзагрузки промежутка : 500 мс.

pb.wtf



Скачать Стрелок через торрент http://uploadpic.ru/img/2013-06/25/4wp4ci297ehdq9d2o8g0s0ox3.png Скачать фильм Стрелок через торрент бесплантно в хорошем качестве Описание: События фильма разворачиваются в Копенгагене в течение пяти дней. Население возмущено тем, что новое правительство нарушило ... 9.5 10 20
Info! Золотая раздача, скачанное не засчитывается.
Торрент: Зарегистрирован [2013-06-25 13:14] · скачан: 416 раз
Статус: √ проверено
Размер: 1.45 GB
Как cкачать? Как скачать Стрелок через торрент | qTorrent

28-11-2019 20:33  

Отключить всю рекламу на сайте

    Дорогой пользователь! Огромная просьба, поблагодарите релизера, оцените раздачу и оставьте свои комментарий, если Вы скачали Стрелок через торрент бесплатно! Внесите свою лепту в развитие PiratBit!
    Комментировать посты могут только пользователи прошедшие не сложную регистрацию
    Показать сообщения:    

    Стрелок через торрент
    Скачать бесплатно Стрелок
    Стрелок скачать торрент
    Стрелок смотреть онлайн
    Cкачать фильм Стрелок бесплатно
    Стрелок скачать торрент в хорошем качестве
    Стрелок смотреть онлайн бесплатно в хорошем качестве


    Вы не можете начинать темы
    Вы не можете отвечать на сообщения
    Вы не можете редактировать свои сообщения
    Вы не можете удалять свои сообщения
    Вы не можете голосовать в опросах
    Вы не можете прикреплять файлы к сообщениям
    Вы можете скачивать файлы