Доктор Стрэндж

Лицензия

Добыча

Дубляж

Дом дракона

1 сезон

Тор

Дубляж

В эфире

Дубляж

Там, где раки поют

MVO

Властелин колец

1 сезон

GLOBAL

pack

Рекомендуем

30

Пиратка

ВАЖНО

ВАЖНО

Ghostwire

Пиратка

jed

RePack

nioh2

RePack

RDR2

RePack

NEED FOR SPEED™ PAYBACK

RePack

скачать торрент

Кинопоиск HD

Острые козырьки 6 сезон

6 сезон

FAR CRY 6

RePack

скачать торрент

Лицензия

скачать торрент

MVO

1

1 сезон

скачать торрент

1 сезон

скачать торрент

Лицензия

  

Охотники на гангстеров / Gangster Squad (Рубен Фляйшер) [2013 г., Боевик, триллер, драма, криминал, BDRip 1080p, Дубляж + Оригинал+Укр (Дубляж)]

Охотники на гангстеров через торрент pb.wtf

Размер: 10.83 GB | Добавлен: 9 лет 7 мес. назад | Торрент скачан:58 раз
Смотреть онлайн | Скачать   

28-04-2013 18:13 Охотники на гангстеров Скачать торрент  

«Ни имён. Ни закона. Ни жалости.»Охотники на гангстеров / Gangster Squad
Год выпуска: 2013
Страна: США, Langley Park Productions, Lin Pictures, Village Roadshow Pictures
Жанр: Боевик, триллер, драма, криминал,
Продолжительность: 01:52:55
Перевод: Дубляж + Оригинал+Укр (Дубляж)
Субтитры: Russian(Forced, Full, Commentary), Ukrainian, English(SDH, Commentary)

Режиссер: Рубен Фляйшер

В ролях: Джош Бролин, Райан Гослинг, Ник Нолти, Эмма Стоун, Энтони Маки, Джованни Рибизи, Майкл Пенья, Роберт Патрик, Шон Пенн, Холт МакКэллани,

Описание: Лос-Анджелес, 1949 год. Уроженец Бруклина, жестокий главарь банды Микки Коэн держит город в ежовых рукавицах, собирая «грязные» деньги от торговли наркотиками, оружием и проституции, и — если все пойдет, как надо, — к Западу от Чикаго мышь не пискнет без его ведома. Защищают его не только его же головорезы, но и находящиеся у него «на крючке» полиция и политики. Этого хватит, чтобы запугать даже самых смелых, закаленных улицей копов… кроме, пожалуй, небольшой тайной группы сотрудников полицейского департамента Лос-Анджелеса во главе с сержантом Джоном О’Мара и Джерри Вутерсом, которые объединились, чтобы попытаться уничтожить преступный мир Коэна.

Качество: BDRip 1080p
Формат: MKV
Видео кодек: MPEG4
Аудио кодек: AC3/DTS
Видео: 1920x800 at 23.976 fps, [email protected], crf, ~10500 kbps avg
Аудио#1: Russian: 48 kHz, AC3, 3/2 (L,C,R,l,r) + LFE ch, ~640.00 kbps avg |Дубляж, Blu-Ray CEE|
Аудио#2: Ukrainian: 48 kHz, AC3, 3/2 (L,C,R,l,r) + LFE ch, ~640.00 kbps avg |Дубляж, Blu-Ray CEE|
Аудио#3: English: 48 kHz, DTS, 3/2 (L,C,R,l,r) + LFE ch, ~1536.00 kbps avg
Аудио#4: English: 48 kHz, AC3, 2/0 (L,R) ch, ~192.00 kbps avg |Commentary|
Релиз от:
Gangster.Squad.2013.1080p.BluRay.Rus.2xEng.Subs-EbP.mkv
Format : Matroska
Format version : Version 2
File size : 10.3 GiB
Duration : 1h 52mn
Overall bit rate : 13.1 Mbps
Movie name : Gangster Squad (2013) - Release by HDCLUB & HDT
Encoded date : UTC 2013-04-28 15:10:23
Writing application : mkvmerge v5.8.0 ('No Sleep / Pillow') built on Sep 2 2012 15:37:04
Writing library : libebml v1.2.3 + libmatroska v1.3.0

Video
ID : 1
Format : AVC
Format/Info : Advanced Video Codec
Format profile : [email protected]
Format settings, CABAC : Yes
Format settings, ReFrames : 5 frames
Codec ID : V_MPEG4/ISO/AVC
Duration : 1h 52mn
Bit rate : 10.5 Mbps
Width : 1 920 pixels
Height : 800 pixels
Display aspect ratio : 2.40:1
Frame rate : 23.976 fps
Color space : YUV
Chroma subsampling : 4:2:0
Bit depth : 8 bits
Scan type : Progressive
Bits/(Pixel*Frame) : 0.285
Stream size : 8.27 GiB (80%)
Title : Release by HDCLUB & HDT
Writing library : x264 core 130 r2273 b3065e6
Encoding settings : cabac=1 / ref=5 / deblock=1:-3:-3 / analyse=0x3:0x113 / me=tesa /
subme=10 / psy=1 / psy_rd=0.90:0.00 / mixed_ref=1 / me_range=16 / chroma_me=1 / trellis=2 /
8x8dct=1 / cqm=0 / deadzone=21,11 / fast_pskip=0 / chroma_qp_offset=-2 / threads=12 /
lookahead_threads=2 / sliced_threads=0 / nr=0 / decimate=0 / interlaced=0 / bluray_compat=0 /
constrained_intra=0 / bframes=8 / b_pyramid=2 / b_adapt=2 / b_bias=0 / direct=3 / weightb=1 /
open_gop=0 / weightp=2 / keyint=250 / keyint_min=23 / scenecut=40 / intra_refresh=0 / rc=crf /
mbtree=0 / crf=16.0 / qcomp=0.65 / qpmin=0 / qpmax=69 / qpstep=4 / ip_ratio=1.10 / pb_ratio=1.10 /
aq=1:0.60 / zones=134919,147287,crf=15.5
Language : English
Matrix coefficients : BT.709-5, BT.1361, IEC 61966-2-4 709, SMPTE RP177

Audio #1
ID : 2
Format : AC-3
Format/Info : Audio Coding 3
Mode extension : CM (complete main)
Codec ID : A_AC3
Duration : 1h 52mn
Bit rate mode : Constant
Bit rate : 640 Kbps
Channel(s) : 6 channels
Channel positions : Front: L C R, Side: L R, LFE
Sampling rate : 48.0 KHz
Bit depth : 16 bits
Compression mode : Lossy
Stream size : 517 MiB (5%)
Title : AC3 5.1 @ 640 kbps - Дубляж, BD CEE
Language : Russian

Audio #2
ID : 3
Format : DTS
Format/Info : Digital Theater Systems
Codec ID : A_DTS
Duration : 1h 52mn
Bit rate mode : Constant
Bit rate : 1 510 Kbps
Channel(s) : 6 channels
Channel positions : Front: L C R, Side: L R, LFE
Sampling rate : 48.0 KHz
Bit depth : 24 bits
Compression mode : Lossy
Stream size : 1.19 GiB (12%)
Title : DTS 5.1 @ 1536 kbps
Language : English

Audio #3
ID : 4
Format : AC-3
Format/Info : Audio Coding 3
Format profile : Dolby Digital
Mode extension : CM (complete main)
Codec ID : A_AC3
Duration : 1h 52mn
Bit rate mode : Constant
Bit rate : 192 Kbps
Channel(s) : 2 channels
Channel positions : Front: L R
Sampling rate : 48.0 KHz
Bit depth : 16 bits
Compression mode : Lossy
Stream size : 155 MiB (1%)
Title : AC3 2.0 @ 192Kbps - Commentary
Language : English

Text #1
ID : 5
Format : UTF-8
Codec ID : S_TEXT/UTF8
Codec ID/Info : UTF-8 Plain Text
Title : Forced
Language : Russian

Text #2
ID : 6
Format : UTF-8
Codec ID : S_TEXT/UTF8
Codec ID/Info : UTF-8 Plain Text
Title : Full
Language : Russian

Text #3
ID : 7
Format : UTF-8
Codec ID : S_TEXT/UTF8
Codec ID/Info : UTF-8 Plain Text
Title : SDH
Language : English

Text #4
ID : 8
Format : UTF-8
Codec ID : S_TEXT/UTF8
Codec ID/Info : UTF-8 Plain Text
Title : Commentary
Language : English

Menu
00:00:00.000 : en:00:00:00.000
00:09:53.635 : en:00:09:53.635
00:20:51.167 : en:00:20:51.167
00:28:36.173 : en:00:28:36.173
00:39:22.860 : en:00:39:22.860
00:49:25.462 : en:00:49:25.462
00:59:59.262 : en:00:59:59.262
01:09:23.493 : en:01:09:23.493
01:20:05.259 : en:01:20:05.259
01:31:01.539 : en:01:31:01.539
01:38:50.341 : en:01:38:50.341
01:44:11.370 : en:01:44:11.370




Скачать Охотники на гангстеров через торрент http://i51.fastpic.ru/big/2013/0408/8e/7d3fd163ffbe307487a9b9fcd447928e.png Скачать, смотреть онлайн Охотники на гангстеров бесплантно в хорошем качестве Описание: Лос-Анджелес, 1949 год. Уроженец Бруклина, жестокий главарь банды Микки Коэн держит город в ежовых рукавицах, собирая «грязные» ... 9.9 10 8
Info! Золотая раздача, скачанное не засчитывается.
Торрент: Зарегистрирован [2013-04-28 18:13] · скачан: 58 раз
Статус: √ проверено
Размер: 10.83 GB
Как cкачать? Как скачать Охотники на гангстеров через торрент | UTorrent

28-11-2019 20:33  


Отключить вcю реклaмy на сайте, в т.ч. и в плеере онлайн просмотра!

    Дорогой пользователь! Огромная просьба, поблагодарите релизера, оцените раздачу и оставьте свои комментарий, если Вы скачали Охотники на гангстеров через торрент бесплатно!!
    Комментировать посты могут только пользователи прошедшие не сложную регистрацию
    Показать сообщения:    


    Охотники на гангстеров через торрент
    Скачать бесплатно Охотники на гангстеров
    Охотники на гангстеров скачать торрент
    Охотники на гангстеров смотреть онлайн
    Cкачать фильм Охотники на гангстеров бесплатно
    Охотники на гангстеров скачать торрент в хорошем качестве
    Охотники на гангстеров смотреть онлайн бесплатно в хорошем качестве
    Вы не можете начинать темы
    Вы не можете отвечать на сообщения
    Вы не можете редактировать свои сообщения
    Вы не можете удалять свои сообщения
    Вы не можете голосовать в опросах
    Вы не можете прикреплять файлы к сообщениям
    Вы можете скачивать файлы
    Охотники на гангстеров / Gangster Squad [2013 г., Боевик, триллер, драма, криминал, BDRip 1080p, Дубляж + Оригинал+Укр ] смотреть онлайн, скачать торрент picoco.icu