новый адрес
Ссылка на приватное зеркало всего за 1$. Внимание количество ограничено!!!

iTunes

1+1

iTunes

мы

WEB-DL

1

iTunes

Чернобыль

iTunes

Ральф против интернета

Лицензия

ПШазам

Лицензия

Оно 2

Лицензия

30
pack

Вам бонус

ВАЖНО

!!Акция!!

Alien_RageХит недели

RePack

Resident Evil 21

ИГРА 18+

pack

RePack

jed

!!Акция!!

Alien_Rage

RePack

fifa19

RePack

Assassins Creed: Odyssey

RePack

NEED FOR SPEED™ PAYBACK

3 сезон

9 сезон

Бесстыжие 9 сезон

Все сериалы

все сериалы на PB.wtf

RePack

FAR CRY 5
Ребята, катастрофически не хватает 1900р. для оплаты серверов за Октябрь (всвязи с блокировками трафик упал в 3 раза), 1-2р., выручайте.
  

Розыгрыш / Prank (Yiuwing Lam) [ 2013 , США , криминал , WEB-DLRip ] VO [den904] pb.wtf

Розыгрыш через торрент pb.wtf

Размер: 1.37 GB | Добавлен: 6 лет 5 мес. назад | Торрент скачан:393 раза
Скачать  

25-06-2013 19:59 Розыгрыш Скачать торрент  

Розыгрыш / Prank


  • Год выпуска:2013
  • Страна: США
  • Жанр:криминал
  • Продолжительность: 01:21:56
  • Перевод:Любительский (одноголосый)[den904], перевод [Janetta]

  • Субтитры: Нет
    • Режиссер: Yiuwing Lam
    • Продюсер: Кимберли Скотт / Kimberly Scott, Nary La, Марк Дэниэл Ходж / Mark Daniel Hodge, Pama Monfries, Chris Hung
    • Сценарий:Yiuwing Lam

  • В ролях:Ник Рено (Connor Burns), Henry Monfries (Jordan Bloom), Джеменн де ла Пенья (Chunk), Ханна Касулка (Eve Goodwin), Alastair Ferrie (Dax Gaiman), Рене Каде (Omar), Рэйчел Дуэйм (Sis), Vanja Scholls (Doctor)
    • Описание:
      Трое подростков, учеников выпускного класса школы, решили разыграть свого обидчика. Однако вместо невинного розыгрыша его ждала жестокая казнь.

  • Рейтинг
    imdb.com: 5.90 (22)
    • Качество: WEB-DLRip
    • Формат: AVI
    • Видео кодек: XviD
    • Аудио кодек: AC3
    • Видео: XviD, 720x400 (16:9), 1994 kbps, 23,976 fps, 0,289 bpp
    • Аудио: AC3 / 5.1 / 48 kHz / 384 kbps / 16 bit

    General
    Complete name : D:ТорентыРозыгрыш.2013.WEB-DLRip.avi
    Format : AVI
    Format/Info : Audio Video Interleave
    File size : 1.37 GiB
    Duration : 1h 21mn
    Overall bit rate : 2 388 Kbps
    Writing application : VirtualDubMod 1.5.10.2 (build 2540/release)
    Writing library : VirtualDubMod build 2540/release

    Video
    ID : 0
    Format : MPEG-4 Visual
    Format profile : Advanced Simple@L5
    Format settings, BVOP : 2
    Format settings, QPel : No
    Format settings, GMC : No warppoints
    Format settings, Matrix : Custom
    Codec ID : XVID
    Codec ID/Hint : XviD
    Duration : 1h 21mn
    Bit rate : 1 995 Kbps
    Width : 720 pixels
    Height : 400 pixels
    Display aspect ratio : 16:9
    Frame rate : 23.976 fps
    Color space : YUV
    Chroma subsampling : 4:2:0
    Bit depth : 8 bits
    Scan type : Progressive
    Compression mode : Lossy
    Bits/(Pixel*Frame) : 0.289
    Stream size : 1.14 GiB (84%)
    Writing library : XviD 1.2.1 (UTC 2008-12-04)

    Audio
    ID : 1
    Format : AC-3
    Format/Info : Audio Coding 3
    Mode extension : CM (complete main)
    Codec ID : 2000
    Duration : 1h 21mn
    Bit rate mode : Constant
    Bit rate : 384 Kbps
    Channel(s) : 6 channels
    Channel positions : Front: L C R, Side: L R, LFE
    Sampling rate : 48.0 KHz
    Bit depth : 16 bits
    Compression mode : Lossy
    Stream size : 225 MiB (16%)
    Alignment : Split accross interleaves
    Interleave, duration : 42 ms (1.00 video frame)
    Interleave, preload duration : 500 ms
    Сценарий: Yiuwing Lam
    Продюсер: Кимберли Скотт / Kimberly Scott, Nary La, Марк Дэниэл Ходж / Mark Daniel Hodge, Pama Monfries, Chris Hung
    Оператор: Джереми Лундборг / Jeremy Lundborg
    Композитор: Адам Браун / Adam Brown

    Мировая премьера: 18 июня 2013




    © Оформление&Постер by Vetalpb.wtf



  • Скачать Розыгрыш через торрент http://i4.imageban.ru/out/2013/06/25/ff4cbdbe4b9997f7fcd7395b4cf11b7c.png Скачать фильм Розыгрыш через торрент бесплантно в хорошем качестве Описание:Трое подростков, учеников выпускного класса школы, решили разыграть свого обидчика. Однако вместо невинного розыгрыша его ждала ... 8.8 10 12
    Info! Золотая раздача, скачанное не засчитывается.
    Торрент: Зарегистрирован [2013-06-25 19:59] · скачан: 393 раз
    Статус: √ проверено
    Размер: 1.37 GB
    Как cкачать? Как скачать Розыгрыш через торрент | qTorrent

    28-11-2019 20:33  

    Отключить всю рекламу на сайте

    25-06-2013 20:08 Розыгрыш Скачать торрент  

    imdb ratings: 3.8/10 from 213 userspb.wtf



    19-07-2013 18:25 Розыгрыш Скачать торрент  

    как фильм отпишитесьpb.wtf



      Дорогой пользователь! Огромная просьба, поблагодарите релизера, оцените раздачу и оставьте свои комментарий, если Вы скачали Розыгрыш через торрент бесплатно! Внесите свою лепту в развитие PiratBit!
      Комментировать посты могут только пользователи прошедшие не сложную регистрацию
      Показать сообщения:    

      Розыгрыш через торрент
      Скачать бесплатно Розыгрыш
      Розыгрыш скачать торрент
      Розыгрыш смотреть онлайн
      Cкачать фильм Розыгрыш бесплатно
      Розыгрыш скачать торрент в хорошем качестве
      Розыгрыш смотреть онлайн бесплатно в хорошем качестве


      Вы не можете начинать темы
      Вы не можете отвечать на сообщения
      Вы не можете редактировать свои сообщения
      Вы не можете удалять свои сообщения
      Вы не можете голосовать в опросах
      Вы не можете прикреплять файлы к сообщениям
      Вы можете скачивать файлы