новый адрес
Ссылка на приватное зеркало всего за 1$. Внимание количество ограничено!!!

iTunes

1+1

iTunes

мы

WEB-DL

1

iTunes

Чернобыль

iTunes

Ральф против интернета

Лицензия

ПШазам

Лицензия

Оно 2

Лицензия

30
pack

Вам бонус

ВАЖНО

!!Акция!!

Alien_RageХит недели

RePack

Resident Evil 21

ИГРА 18+

pack

RePack

jed

!!Акция!!

Alien_Rage

RePack

fifa19

RePack

Assassins Creed: Odyssey

RePack

NEED FOR SPEED™ PAYBACK

3 сезон

9 сезон

Бесстыжие 9 сезон

Все сериалы

все сериалы на PB.wtf

RePack

FAR CRY 5
Ребята, катастрофически не хватает 1900р. для оплаты серверов за Октябрь (всвязи с блокировками трафик упал в 3 раза), 1-2р., выручайте.
  

Сага: Тень Кабала / SAGA - Curse of the Shadow (Джон Лойд) [2013 г., фэнтези, боевик, приключения, BDRip-AVC, DVO] pb.wtf

Сага: Тень Кабала через торрент pb.wtf

Размер: 2 GB | Добавлен: 6 лет 5 мес. назад | Торрент скачан:587 раз
Скачать  

25-06-2013 22:39 Сага: Тень Кабала Скачать торрент  

Сага: Тень Кабала / SAGA - Curse of the Shadow
  • Год выпуска: 2013
  • Страна: США
  • Жанр: фэнтези, боевик, приключения
  • Продолжительность: 100 мин. / 01:45:19
  • Перевод: Любительский (двуголосый закадровый)
  • Субтитры: Английские, русские (форс./ на речь орков)

  • Режиссер: Джон Лойд
  • Продюссер: Джейсон Фоллер, Кайнен Гриффин, Джон Лойд
  • Сценарий: Джейсон Фоллер, Кайнен Гриффин

  • Премьера в мире: 18 июня 2013





  • В ролях: Даниэль Чачран, Ричард МакУильямс, Пол Хант, Джеймс С. Моррис, Ив Мауро, Дэнни Джеймс, Спенсер Барбер, Мэл Кроу, Кристел Эдвардс, Джеймс Гейсфорд

  • Описание: Война богов разорила землю, и оставшиеся в живых люди в отчаянии заключили соглашение с эльфами и гномами. Это положило конец войне, заставив орков и темных эльфов отступить в глубь пустоши. Однако данное соглашение, восстановив цивилизацию, возродило и древнее Зло. В темных углах таверн и в мрачных пещерах стал слышен шепот заговорщиков, известных как Тень...


  • Качество: BDRip-AVC
  • Формат: MKV
  • Видео кодек: H.264
  • Аудио кодек: AC3
  • Видео: H.264, 960x540 (16:9), 23,976 fps, 2073 Кbps, 0.167 bit/pixe
  • Аудио#1: 48 kHz, AC3 Dolby Digital, 2/0 (L,C) ch, 192.00 kbps | RUS
  • Аудио#2: 48 kHz, AC3 Dolby Digital, 3/2 (L,C,R,l,r) + LFE ch, 448.00 kbps | ENG






    D:Saga.Ten'.Kabala.2013.L2.BDRip.
    General
    Unique ID : 240313848613136536807397449840597915857 (0xB4CAC3827735D737B5E94368101BD8D1)
    Complete name : D:Saga.Ten'.Kabala.2013.L2.BDRip.
    Format : Matroska
    Format version : Version 2
    File size : 2.00 GiB
    Duration : 1h 45mn
    Overall bit rate : 2 714 Kbps
    Movie name :
    Encoded date : UTC 2013-06-25 17:28:28
    Writing application : mkvmerge v5.9.0 ('On The Loose') built on Dec 15 2012 16:39:58
    Writing library : libebml v1.3.0 + libmatroska v1.4.0
    Video #1
    ID : 1
    Format : AVC
    Format/Info : Advanced Video Codec
    Format profile : High@L4.1
    Format settings, CABAC : Yes
    Format settings, ReFrames : 13 frames
    Codec ID : V_MPEG4/ISO/AVC
    Duration : 1h 45mn
    Bit rate : 2 073 Kbps
    Width : 960 pixels
    Height : 540 pixels
    Display aspect ratio : 16:9
    Frame rate : 23.976 fps
    Color space : YUV
    Chroma subsampling : 4:2:0
    Bit depth : 8 bits
    Scan type : Progressive
    Bits/(Pixel*Frame) : 0.167
    Stream size : 1.49 GiB (74%)
    Title : SAGA - Curse of the Shadow
    Writing library : x264 core 125 r2208 d9d2288
    Encoding settings : cabac=1 / ref=13 / deblock=1:-2:-1 / analyse=0x3:0x133 / me=umh / subme=11 / psy=1 / psy_rd=1.06:0.00 / mixed_ref=1 / me_range=32 / chroma_me=1 / trellis=2 / 8x8dct=1 / cqm=0 / deadzone=21,11 / fast_pskip=0 / chroma_qp_offset=-2 / threads=9 / lookahead_threads=1 / sliced_threads=0 / nr=0 / decimate=1 / interlaced=0 / bluray_compat=0 / constrained_intra=0 / bframes=14 / b_pyramid=2 / b_adapt=2 / b_bias=0 / direct=3 / weightb=1 / open_gop=0 / weightp=2 / keyint=240 / keyint_min=23 / scenecut=40 / intra_refresh=0 / rc_lookahead=150 / rc=2pass / mbtree=1 / bitrate=2073 / ratetol=1.0 / qcomp=0.70 / qpmin=0 / qpmax=69 / qpstep=4 / cplxblur=20.0 / qblur=0.5 / vbv_maxrate=20000 / vbv_bufsize=25000 / nal_hrd=none / ip_ratio=1.35 / aq=1:0.80
    Language : English
    Default : Yes
    Forced : No
    Audio #2
    ID : 2
    Format : AC-3
    Format/Info : Audio Coding 3
    Mode extension : CM (complete main)
    Format settings, Endianness : Big
    Codec ID : A_AC3
    Duration : 1h 45mn
    Bit rate mode : Constant
    Bit rate : 192 Kbps
    Channel(s) : 2 channels
    Channel positions : Front: L R
    Sampling rate : 48.0 KHz
    Bit depth : 16 bits
    Compression mode : Lossy
    Stream size : 145 MiB (7%)
    Title : DVO | DD 2.0 @ 192 kbps
    Language : Russian
    Default : Yes
    Forced : Yes
    Audio #3
    ID : 3
    Format : AC-3
    Format/Info : Audio Coding 3
    Mode extension : CM (complete main)
    Format settings, Endianness : Big
    Codec ID : A_AC3
    Duration : 1h 45mn
    Bit rate mode : Constant
    Bit rate : 448 Kbps
    Channel(s) : 6 channels
    Channel positions : Front: L C R, Side: L R, LFE
    Sampling rate : 48.0 KHz
    Bit depth : 16 bits
    Compression mode : Lossy
    Stream size : 338 MiB (17%)
    Title : Original | DD 5.1 @ 448 kbps
    Language : English
    Default : No
    Forced : No
    Text #4
    ID : 4
    Format : UTF-8
    Codec ID : S_TEXT/UTF8
    Codec ID/Info : UTF-8 Plain Text
    Title : Forced
    Language : Russian
    Default : Yes
    Forced : Yes
    Text #5
    ID : 5
    Format : UTF-8
    Codec ID : S_TEXT/UTF8
    Codec ID/Info : UTF-8 Plain Text
    Title : Full
    Language : English
    Default : No

    Forced : No


    Сага: Тень Кабала скачать торрент


    pb.wtf



  • Скачать Сага: Тень Кабала через торрент http://pic.kartinco.top/images/3/2zf3uzt9zh.jpg Скачать фильм Сага: Тень Кабала через торрент бесплантно в хорошем качестве Описание: Война богов разорила землю, и оставшиеся в живых люди в отчаянии заключили соглашение с эльфами и гномами. Это положило конец ... 9.9 10 20
    Info! Золотая раздача, скачанное не засчитывается.
    Торрент: Зарегистрирован [2013-06-25 22:39] · скачан: 587 раз
    Статус: √ проверено
    Размер: 2 GB
    Как cкачать? Как скачать Сага: Тень Кабала через торрент | qTorrent

    % Раздел Тема Автор DL S | L
    Фильмы 2013 (Звук TS, Cam, VO, DVO) [ 1.46 GB ] Сага: Тень Кабала / SAGA - Curse of the Shadow [2013 HDRip] DVO Ворон Скачать
    1 | 0

    28-11-2019 20:33  

    Отключить всю рекламу на сайте

    26-06-2013 11:14 Сага: Тень Кабала Скачать торрент  

    На фоне популярности жанра пытаются создать "шедевр". исключительно для ТВ-3. если голова болит и пиво в руке, постоянно куда то необходимо отлучаться, фильм можно не останавливать, сюжет весьма предсказуем.

    Автору Спасибо!pb.wtf



    26-06-2013 12:36 Сага: Тень Кабала Скачать торрент  

    Скрины глянул и вспомнил skyrim^_^.Заберу пожалуй!
    Автору спасибо!pb.wtf



    26-06-2013 12:37 Сага: Тень Кабала Скачать торрент  

    )))) Мне даже пиво не помогло досмотреть ЭТО до конца)pb.wtf



    26-06-2013 15:51 Сага: Тень Кабала Скачать торрент  

    perov08
    это эээ..типа трешачок с консольной графикой?pb.wtf



    26-06-2013 17:53 Сага: Тень Кабала Скачать торрент  

    Трашан трешовский)pb.wtf



    26-06-2013 21:41 Сага: Тень Кабала Скачать торрент  

    я когда пострел его чуть не стошнило надо же показать такое это просто жутьpb.wtf



    27-06-2013 18:32 Сага: Тень Кабала Скачать торрент  

    +1!!! на 11-й минуте моя психика не выдержалаpb.wtf



      Дорогой пользователь! Огромная просьба, поблагодарите релизера, оцените раздачу и оставьте свои комментарий, если Вы скачали Сага: Тень Кабала через торрент бесплатно! Внесите свою лепту в развитие PiratBit!
      Комментировать посты могут только пользователи прошедшие не сложную регистрацию
      Показать сообщения:    

      Сага: Тень Кабала через торрент
      Скачать бесплатно Сага: Тень Кабала
      Сага: Тень Кабала скачать торрент
      Сага: Тень Кабала смотреть онлайн
      Cкачать фильм Сага: Тень Кабала бесплатно
      Сага: Тень Кабала скачать торрент в хорошем качестве
      Сага: Тень Кабала смотреть онлайн бесплатно в хорошем качестве


      Вы не можете начинать темы
      Вы не можете отвечать на сообщения
      Вы не можете редактировать свои сообщения
      Вы не можете удалять свои сообщения
      Вы не можете голосовать в опросах
      Вы не можете прикреплять файлы к сообщениям
      Вы можете скачивать файлы