Доктор Стрэндж

Лицензия

Добыча

Дубляж

Уэнсдэй

1 сезон

Тор

Дубляж

В эфире

Дубляж

Там, где раки поют

MVO

Властелин колец

1 сезон

Deluxe

pack

Рекомендуем

30

Пиратка

ВАЖНО

ВАЖНО

Ghostwire

Пиратка

jed

RePack

nioh2

RePack

RDR2

RePack

NEED FOR SPEED™ PAYBACK

RePack

скачать торрент

Кинопоиск HD

Острые козырьки 6 сезон

6 сезон

FAR CRY 6

RePack

скачать торрент

Лицензия

скачать торрент

MVO

1

1 сезон

скачать торрент

1 сезон

скачать торрент

Лицензия

  

Ключ от всех дверей / The Skeleton Key (Иэн Софтли) [2005 г., триллер, драма, детектив, BDRip 720p, Дубляж]

Ключ от всех дверей через торрент pb.wtf

Размер: 4.37 GB | Добавлен: 9 лет 5 мес. назад | Торрент скачан:219 раз
Смотреть онлайн | Скачать   

26-06-2013 04:21 Ключ от всех дверей Скачать торрент  

Ключ от всех дверей / The Skeleton Key
Год выпуска: 2005
Страна: США
Жанр: триллер, драма, детектив,
Продолжительность: 01:43:57
Перевод: Дубляж
Субтитры: Русские, Английские.

Режиссер: Иэн Софтли
Продюссер: Дэниэл Бобкер, Майкл Шамберг, Стейси Шер
Сценарий: Эрен Крюгер

Бюджет: $43 000 000
Премьера в мире: 29 июля 2005

IMDB 6.40 (61 009)


В ролях: Кейт Хадсон, Джина Роулендс, Джон Хёрт, Питер Сарсгаард, Джой Брайант, Максин Барнетт, Фэнлони Р. Харрис, Мэрион Цинсер, Денин Тайлер, Энн Далримпл,

Описание: 25-летняя Кэролайн Эллис устраивается работать сиделкой к пожилому инвалиду Бену Деверо, владельцу огромного особняка неподалеку от Луизианы. Его жена Вайолет вручает девушке универсальный ключ от всех дверей в доме. Однажды Кэролайн обнаруживает секретную комнату, расположенную на чердаке с массой мистических предметов. Хозяйка утверждает, что вещи принадлежат бывшим владельцам, которые занимались черной магией. Вскоре Кэролайн становится свидетельницей довольно странных и необъяснимых событий и решает, во что бы то ни стало, разгадать секрет таинственной комнаты...

Качество: BDRip 720p
Формат: MKV
Видео кодек: H.264
Аудио кодек: AC3
Видео: AVC at 4998 Кбит/сек Aspect : 1280 x 544 (2.353) at 23.976 fps
Аудио#1: AC-3 at 448 Кбит/сек Infos : 6 каналов, 48,0 КГц Language : ru
Аудио#2: AC-3 at 448 Кбит/сек Infos : 6 каналов, 48,0 КГц Language : en

Код:

Формат                                   : Matroska
Версия формата                           : Version 2
Размер файла                             : 4,37 Гбайт
Продолжительность                        : 1 ч. 43 м.
Режим общего битрейта                    : Переменный
Общий поток                              : 6014 Кбит/сек
Название фильма                          : The Skeleton Key (2005)
Дата кодирования                         : UTC 2011-04-26 09:53:35
Программа кодирования                    : mkvmerge v3.3.0 ('Language') built on Mar 24 2010 14:59:24
Библиотека кодирования                   : libebml v0.8.0 + libmatroska v0.9.0

Видео
Идентификатор                            : 1
Формат                                   : AVC
Формат/Информация                        : Advanced Video Codec
Профиль формата                          : [email protected]
Параметр CABAC формата                   : Да
Параметр ReFrames формата                : 6 кадров
Идентификатор кодека                     : V_MPEG4/ISO/AVC
Продолжительность                        : 1 ч. 43 м.
Вид битрейта                             : Переменный
Битрейт                                  : 4998 Кбит/сек
Максимальный битрейт                     : 5117 Кбит/сек
Ширина                                   : 1280 пикселей
Высота                                   : 544 пикселя
Соотношение сторон                       : 2,35:1
Режим частоты кадров                     : Постоянный
Частота кадров                           : 23,976 кадра/сек
Цветовое пространство                    : YUV
Субдискретизация насыщенности            : 4:2:0
Битовая глубина                          : 8 бит
Тип развёртки                            : Прогрессивная
Бит/(Пиксели*Кадры)                      : 0.299
Размер потока                            : 3,63 Гбайт (83%)
Заголовок                                : Encoded by GYN
Default                                  : Да
Forced                                   : Нет

Аудио #1
Идентификатор                            : 2
Формат                                   : AC-3
Формат/Информация                        : Audio Coding 3
Расширение режима                        : CM (complete main)
Параметр Endianness формата              : Big
Идентификатор кодека                     : A_AC3
Продолжительность                        : 1 ч. 43 м.
Вид битрейта                             : Постоянный
Битрейт                                  : 448 Кбит/сек
Каналы                                   : 6 каналов
Расположение каналов                     : Front: L C R, Side: L R, LFE
Частота                                  : 48,0 КГц
Битовая глубина                          : 16 бит
Метод сжатия                             : С потерями
Размер потока                            : 333 Мбайт (7%)
Заголовок                                : Дубляж
Язык                                     : Russian
Default                                  : Да
Forced                                   : Нет

Аудио #2
Идентификатор                            : 3
Формат                                   : AC-3
Формат/Информация                        : Audio Coding 3
Расширение режима                        : CM (complete main)
Параметр Endianness формата              : Big
Идентификатор кодека                     : A_AC3
Продолжительность                        : 1 ч. 43 м.
Вид битрейта                             : Постоянный
Битрейт                                  : 448 Кбит/сек
Каналы                                   : 6 каналов
Расположение каналов                     : Front: L C R, Side: L R, LFE
Частота                                  : 48,0 КГц
Битовая глубина                          : 16 бит
Метод сжатия                             : С потерями
Размер потока                            : 333 Мбайт (7%)
Заголовок                                : Original
Язык                                     : English
Default                                  : Нет
Forced                                   : Нет

Текст #1
Идентификатор                            : 4
Формат                                   : UTF-8
Идентификатор кодека                     : S_TEXT/UTF8
Идентификатор кодека/Информация          : UTF-8 Plain Text
Язык                                     : Russian
Default                                  : Нет
Forced                                   : Нет

Текст #2
Идентификатор                            : 5
Формат                                   : UTF-8
Идентификатор кодека                     : S_TEXT/UTF8
Идентификатор кодека/Информация          : UTF-8 Plain Text
Язык                                     : English
Default                                  : Нет
Forced                                   : Нет



Ключ от всех дверей скачать торрент





Скачать Ключ от всех дверей через торрент https://pic1.kartinco.top/images/23/m38qjrpoi5.jpg Скачать, смотреть онлайн Ключ от всех дверей бесплантно в хорошем качестве Описание: 25-летняя Кэролайн Эллис устраивается работать сиделкой к пожилому инвалиду Бену Деверо, владельцу огромного особняка неподалеку ... 10 10 20
Info! Золотая раздача, скачанное не засчитывается.
Торрент: Зарегистрирован [2013-06-26 04:21] · скачан: 219 раз
Статус: √ проверено
Размер: 4.37 GB
Как cкачать? Как скачать Ключ от всех дверей через торрент | UTorrent

% Раздел Тема Автор DL S | L
Фильмы 2001-2005 [ 1.46 GB ] Ключ от всех дверей / The Skeleton Key | DUB | HDRip, DUB, лицензия makarevich Скачать
1 | 0
Фильмы [HD 720p, 1080p] (Хороший звук DUB, MVO) [ 12.49 GB ] Ключ от всех дверей / The Skeleton Key | Лицензия | 1080p bober100 Скачать
1 | 0
Фильмы [HD 720p, 1080p] (Хороший звук DUB, MVO) [ 5.11 GB ] Ключ от всех дверей / The Skeleton Key | DUB + DVO + 2хAVO - KORSAR | 720p kisa1980 Скачать
1 | 0

28-11-2019 20:33  


Отключить вcю реклaмy на сайте, в т.ч. и в плеере онлайн просмотра!

26-06-2013 07:51 Ключ от всех дверей Скачать торрент  

Супер кино и завораживающий сюжет !



26-06-2013 08:52 Ключ от всех дверей Скачать торрент  

спасибо за комент, качнём тогда )



26-06-2013 19:33 Ключ от всех дверей Скачать торрент  

Очень приличный фильм-не оторваться,раздающему спасибо!



    Дорогой пользователь! Огромная просьба, поблагодарите релизера, оцените раздачу и оставьте свои комментарий, если Вы скачали Ключ от всех дверей через торрент бесплатно!!
    Комментировать посты могут только пользователи прошедшие не сложную регистрацию
    Показать сообщения:    


    Ключ от всех дверей через торрент
    Скачать бесплатно Ключ от всех дверей
    Ключ от всех дверей скачать торрент
    Ключ от всех дверей смотреть онлайн
    Cкачать фильм Ключ от всех дверей бесплатно
    Ключ от всех дверей скачать торрент в хорошем качестве
    Ключ от всех дверей смотреть онлайн бесплатно в хорошем качестве
    Вы не можете начинать темы
    Вы не можете отвечать на сообщения
    Вы не можете редактировать свои сообщения
    Вы не можете удалять свои сообщения
    Вы не можете голосовать в опросах
    Вы не можете прикреплять файлы к сообщениям
    Вы можете скачивать файлы
    Ключ от всех дверей / The Skeleton Key [2005 г., триллер, драма, детектив, BDRip 720p, Дубляж] смотреть онлайн, скачать торрент picoco.icu