Ссылка на приватное зеркало нашего сайта всего за 1$. Внимание количество ограничено!!!

2 сезон

iTunes

1 сезон

1

iTunes

iTunes

iTunes

1 сезон

RePack

30

ИГРА 18+

pack

ВАЖНО

!!Акция!!

Alien_RageХит недели

RePack

MK11
pack

Забери бонус

RePack

jed

!!Акция!!

Alien_Rage

RePack

fifa19

RePack

Assassins Creed: Odyssey

RePack

NEED FOR SPEED™ PAYBACK

4 сезон

9 сезон

Бесстыжие 9 сезон

Все сериалы

все сериалы на PB.wtf

RePack

FAR CRY 5
  

Экспат / The Expatriate (Филипп Штёльцль) [2011 г., боевик, триллер, BDRip 720p, Дубляж, лицензия] pb.wtf

Экспат через торрент pb.wtf

Размер: 6.18 GB | Добавлен: 7 лет 4 мес. назад | Торрент скачан:126 раз
Скачать  

26-06-2013 09:46 Экспат Скачать торрент  

Экспат / The Expatriate «Чужой среди своих» Год выпуска: 2011
Страна: Бельгия Канада
Жанр: боевик, триллер,
Продолжительность: 01:40:22
Перевод: Дубляж, Лицензия
Тип релиза: Лицензия

Режиссер: Филипп Штёльцль
Продюссер: Клод Леже, Адриан Политковски, Карл Ричардс
Сценарий: Араш Амель

Бюджет: $139 878
Премьера в мире: 21 сентября 2012



IMDB 6.00 (8 105)



В ролях: Аарон Экхарт, Лиана Либерато, Ольга Куриленко, Гэррик Хэйгон, Эрик Годон, Ясин Фадель, Нил Напье, Дэвид Барк-Джонс, Александр Фелинг, Ник Алачиотис, Павел Кипнис

Описание: Агент ЦРУ бросает работу, чтобы наладить отношения с дочерью, но вынужден защитить ее от своих же коллег, которые намерены убить ее по приказу начальства.

Качество: BDRip 720p
Формат: MKV
Видео кодек: H.264
Аудио кодек: DTS
Видео: 1280x544 (2.35:1), 25.000 fps, 5 623 Kbps (0.323 bit/pixel)
Аудио#1: DTS, 48.0 KHz, 6 ch, 1 510 Kbps, CBR (Russian)
Аудио#2: DTS, 48.0 KHz, 6 ch, 1 510 Kbps, CBR (English)








Общее
Уникальный идентификатор : 226222548223580796201450369820679403816 (0xAA30E0C2C4D867DAB4AC76F1BE2AF928)
Полное имя : F:Экспат.2012.720p.BDRip.DD5.1 x264.Rus.Eng.mkv
Формат : Matroska
Версия формата : Version 2
Размер файла : 6,18 Гбайт
Продолжительность : 1 ч. 40 м.
Общий поток : 8818 Кбит/сек
Дата кодирования : UTC 2013-06-26 02:13:31
Программа кодирования : mkvmerge v5.4.0 ('Piper') built on Mar 10 2012 13:34:39
Библиотека кодирования : libebml v1.2.3 + libmatroska v1.3.0

Видео
Идентификатор : 1
Формат : AVC
Формат/Информация : Advanced Video Codec
Профиль формата : High@L4.1
Параметр CABAC формата : Да
Параметр ReFrames формата : 12 кадров
Идентификатор кодека : V_MPEG4/ISO/AVC
Продолжительность : 1 ч. 40 м.
Битрейт : 5624 Кбит/сек
Ширина : 1280 пикселей
Высота : 544 пикселя
Соотношение сторон : 2,35:1
Режим частоты кадров : Постоянный
Частота кадров : 25,000 кадров/сек
Цветовое пространство : YUV
Субдискретизация насыщенности : 4:2:0
Битовая глубина : 8 бит
Тип развёртки : Прогрессивная
Бит/(Пиксели*Кадры) : 0.323
Размер потока : 3,94 Гбайт (64%)
Библиотека кодирования : x264 core 129 r2230 1cffe9f
Настройки программы : cabac=1 / ref=12 / deblock=1:-3:-3 / analyse=0x3:0x133 / me=umh / subme=11 / psy=1 / psy_rd=0.90:0.00 / mixed_ref=1 / me_range=52 / chroma_me=1 / trellis=2 / 8x8dct=1 / cqm=0 / deadzone=21,11 / fast_pskip=0 / chroma_qp_offset=-2 / threads=12 / lookahead_threads=2 / sliced_threads=0 / nr=0 / decimate=0 / interlaced=0 / bluray_compat=0 / constrained_intra=0 / bframes=8 / b_pyramid=2 / b_adapt=2 / b_bias=0 / direct=3 / weightb=1 / open_gop=0 / weightp=2 / keyint=250 / keyint_min=25 / scenecut=40 / intra_refresh=0 / rc=crf / mbtree=0 / crf=16.5 / qcomp=0.70 / qpmin=0 / qpmax=69 / qpstep=4 / ip_ratio=1.30 / pb_ratio=1.30 / aq=2:0.85
Язык : English
Default : Да
Forced : Нет
Коэффициенты матрицы : BT.709

Аудио #1
Идентификатор : 2
Формат : DTS
Формат/Информация : Digital Theater Systems
Режим : 16
Параметр Endianness формата : Big
Идентификатор кодека : A_DTS
Продолжительность : 1 ч. 40 м.
Вид битрейта : Постоянный
Битрейт : 1510 Кбит/сек
Каналы : 6 каналов
Расположение каналов : Front: L C R, Side: L R, LFE
Частота : 48,0 КГц
Битовая глубина : 24 бит
Метод сжатия : С потерями
Размер потока : 1,06 Гбайт (17%)
Язык : Russian
Default : Да
Forced : Нет

Аудио #2
Идентификатор : 3
Формат : DTS
Формат/Информация : Digital Theater Systems
Режим : 16
Параметр Endianness формата : Big
Идентификатор кодека : A_DTS
Продолжительность : 1 ч. 40 м.
Вид битрейта : Постоянный
Битрейт : 1509 Кбит/сек
Каналы : 6 каналов
Расположение каналов : Front: L C R, Side: L R, LFE
Частота : 48,0 КГц
Битовая глубина : 24 бит
Метод сжатия : С потерями
Размер потока : 1,06 Гбайт (17%)
Default : Нет
Forced : Нет

Текст
Идентификатор : 4
Формат : UTF-8
Идентификатор кодека : S_TEXT/UTF8
Идентификатор кодека/Информация : UTF-8 Plain Text
Default : Нет
Forced : Нет

Меню
00:00:00.000 : en:00:00:00.000
00:08:51.440 : en:00:08:51.440
00:16:09.160 : en:00:16:09.160
00:24:37.800 : en:00:24:37.800
00:33:18.440 : en:00:33:18.440
00:43:13.880 : en:00:43:13.880
00:49:27.920 : en:00:49:27.920
00:57:25.800 : en:00:57:25.800
01:05:30.120 : en:01:05:30.120
01:15:04.480 : en:01:15:04.480
01:25:28.680 : en:01:25:28.680
01:35:02.680 : en:01:35:02.680


Экспат скачать торрент




pb.wtf



Скачать Экспат через торрент http://pic.kartinco.top/images/3/731hxn6734.gif Скачать фильм Экспат через торрент бесплантно в хорошем качестве Описание: Агент ЦРУ бросает работу, чтобы наладить отношения с дочерью, но вынужден защитить ее от своих же коллег, которые намерены убить ... 10 10 10
Info! Золотая раздача, скачанное не засчитывается.
Торрент: Зарегистрирован [2013-06-26 09:46] · скачан: 126 раз
Статус: √ проверено
Размер: 6.18 GB
Как cкачать? Как скачать Экспат через торрент | qTorrent

% Раздел Тема Автор DL S | L
Фильмы (Blu-ray, BD-Remux, HDDVD) [ 11.65 GB ] Экспат / The Expatriate [2011 Blu-Ray Remux 1080p лицензия] kellixon Скачать
1 | 0
Фильмы (DVD фильмы) [ 5.18 GB ] Экспат / The Expatriate [2011 DVD9] R5 voovaz Скачать
1 | 0
Фильмы 2012 [ 1.46 GB ] Экспат / The Expatriate [2012 HDRip-AVC лицензия] МАКС1 Скачать
1 | 0
Фильмы 2012 [ 1.46 GB ] Экспат / The Expatriate [2012 HDRip лицензия] Seedtank Скачать
2 | 0

28-11-2019 20:33  

Отключить всю рекламу на сайте

    Дорогой пользователь! Огромная просьба, поблагодарите релизера, оцените раздачу и оставьте свои комментарий, если Вы скачали Экспат через торрент бесплатно! Внесите свою лепту в развитие PiratBit!
    Комментировать посты могут только пользователи прошедшие не сложную регистрацию
    Показать сообщения:    

    Экспат через торрент
    Скачать бесплатно Экспат
    Экспат скачать торрент
    Экспат смотреть онлайн
    Cкачать фильм Экспат бесплатно
    Экспат скачать торрент в хорошем качестве
    Экспат смотреть онлайн бесплатно в хорошем качестве


    Вы не можете начинать темы
    Вы не можете отвечать на сообщения
    Вы не можете редактировать свои сообщения
    Вы не можете удалять свои сообщения
    Вы не можете голосовать в опросах
    Вы не можете прикреплять файлы к сообщениям
    Вы можете скачивать файлы