Ссылка на приватное зеркало нашего сайта всего за 1$. Внимание количество ограничено!!!

2 сезон

iTunes

1 сезон

1

iTunes

iTunes

iTunes

1 сезон

RePack

30

ИГРА 18+

pack

ВАЖНО

!!Акция!!

Alien_RageХит недели

RePack

MK11
pack

Забери бонус

RePack

jed

!!Акция!!

Alien_Rage

RePack

fifa19

RePack

Assassins Creed: Odyssey

RePack

NEED FOR SPEED™ PAYBACK

4 сезон

9 сезон

Бесстыжие 9 сезон

Все сериалы

все сериалы на PB.wtf

RePack

FAR CRY 5
  

Лузеры / The Losers (Сильвен Уайт) [2010 г., боевик, триллер, комедия, криминал, детектив, приключения, BDRip 720p, Дубляж, лицензия] pb.wtf

Лузеры через торрент pb.wtf

Размер: 6.75 GB | Добавлен: 7 лет 4 мес. назад | Торрент скачан:113 раз
Скачать  

26-06-2013 10:11 Лузеры Скачать торрент  

Лузеры / The Losers «А вы были бы уже мертвы.» Год выпуска: 2010
Страна: США
Жанр: боевик, триллер, комедия, криминал, детектив, приключения
Продолжительность: 01:37:00
Перевод: Дубляж, Лицензия
Тип релиза: Лицензия
Субтитры: Есть

Режиссер: Сильвен Уайт
Продюссер: Керри Фостер, Акива Голдсман, Джоэл Силвер
Сценарий: Питер Берг, Джеймс Вандербилт, Энди Диггл

Бюджет: $25 000 000
Премьера в мире: 22 апреля 2010



IMDB 6.30 (53 918)



В ролях: Джеффри Дин Морган, Зои Салдана, Крис Эванс, Идрис Эльба, Коламбус Шорт, Оскар Хаенада, Джейсон Патрик, Холт МакКэллани, Питер Макдисси, Питер Френсис Джеймс

Описание: «Лузеры» — сумасшедший экшн о предательстве и мести, рассказывающий о членах элитного отряда специального назначения, которых отправили в джунгли Боливии. Им поставили задачу «найти и уничтожить», но на месте выясняется, что команду — Клэя, Дженсена, Рока, Пуча и Кугара — подставили, и они попали под перекрестный огонь двух противоборствующих лагерей. Смертельное противостояние было спровоцировано изнутри могущественным врагом, о котором известно лишь одно: его имя — Макс. Решив сыграть на том, что они числятся погибшими, члены отряда уходят в глубокое подполье и составляют опасный план по восстановлению своей репутации и сведению счетов с Максом. К ним присоединяется загадочная Аиша — красавица-агент, работающая по заданию, но вполне способная внести коррективы в заданный сверху план. В перерывах между разборками друг с другом им необходимо всегда оставаться на шаг впереди разъезжающего по всему миру Макса — беспощадного негодяя, намеревающегося втянуть мир в новую высокотехнологичную мировую войну только ради собственной выгоды. Если они смогут победить Макса и одновременно спасти мир, это будет настоящей удачей для команды, известной теперь как ЛУЗЕРЫ.

Качество: BDRip 720p
Формат: MKV
Видео кодек: H.264
Аудио кодек: AC3/DTS
Видео: 1280x534 (2.35:1), 23.976 fps, 6 563 Kbps (0.400 bit/pixel)
Аудио #1: AC-3, 48.0 KHz, 6 ch, 384 Kbps, CBR (Russian)
Аудио #2: DTS, 48.0 KHz, 6 ch, 1 510 Kbps, CBR (Russian)
Аудио #3: DTS, 48.0 KHz, 6 ch, 1 510 Kbps, CBR (English)
Субтитры: Russian, Russian, Ukrainian






Общее
Уникальный идентификатор : 179035235508612001333423173047397436686 (0x86B0EE9F324D3F1DB2BD30A3A058CD0E)
Полное имя : F:Лузеры.2010.720p.BDRip.Rus.Eng.mkv
Формат : Matroska
Версия формата : Version 2
Размер файла : 6,75 Гбайт
Продолжительность : 1 ч. 37 м.
Общий поток : 9964 Кбит/сек
Название фильма : The Losers (2010)
Дата кодирования : UTC 2010-09-01 09:47:56
Программа кодирования : mkvmerge v4.2.0 built on Jul 28 2010 18:38:23
Библиотека кодирования : libebml v1.0.0 + libmatroska v1.0.0

Видео
Идентификатор : 1
Формат : AVC
Формат/Информация : Advanced Video Codec
Профиль формата : High@L4.1
Параметр CABAC формата : Да
Параметр ReFrames формата : 11 кадров
Идентификатор кодека : V_MPEG4/ISO/AVC
Продолжительность : 1 ч. 37 м.
Битрейт : 6563 Кбит/сек
Ширина : 1280 пикселей
Высота : 534 пикселя
Соотношение сторон : 2,40:1
Режим частоты кадров : Постоянный
Частота кадров : 23,976 кадра/сек
Цветовое пространство : YUV
Субдискретизация насыщенности : 4:2:0
Битовая глубина : 8 бит
Тип развёртки : Прогрессивная
Бит/(Пиксели*Кадры) : 0.400
Размер потока : 4,31 Гбайт (64%)
Заголовок : H.264, 1280x534, 6563 kbps
Библиотека кодирования : x264 core 102 r1666 d058f37
Настройки программы : cabac=1 / ref=11 / deblock=1:-3:-3 / analyse=0x3:0x133 / me=umh / subme=10 / psy=1 / psy_rd=0.80:0.00 / mixed_ref=1 / me_range=32 / chroma_me=1 / trellis=2 / 8x8dct=1 / cqm=0 / deadzone=21,11 / fast_pskip=1 / chroma_qp_offset=-2 / threads=6 / sliced_threads=0 / nr=0 / decimate=1 / interlaced=0 / constrained_intra=0 / bframes=6 / b_pyramid=2 / b_adapt=2 / b_bias=0 / direct=3 / weightb=1 / open_gop=0 / weightp=2 / keyint=250 / keyint_min=25 / scenecut=40 / intra_refresh=0 / rc_lookahead=40 / rc=2pass / mbtree=1 / bitrate=6563 / ratetol=1.0 / qcomp=0.60 / qpmin=10 / qpmax=51 / qpstep=4 / cplxblur=20.0 / qblur=0.5 / ip_ratio=1.40 / aq=1:1.20
Default : Да
Forced : Нет

Аудио #1
Идентификатор : 2
Формат : AC-3
Формат/Информация : Audio Coding 3
Расширение режима : CM (complete main)
Параметр Endianness формата : Big
Идентификатор кодека : A_AC3
Продолжительность : 1 ч. 37 м.
Вид битрейта : Постоянный
Битрейт : 384 Кбит/сек
Каналы : 6 каналов
Расположение каналов : Front: L C R, Side: L R, LFE
Частота : 48,0 КГц
Битовая глубина : 16 бит
Метод сжатия : С потерями
Размер потока : 266 Мбайт (4%)
Заголовок : AC3 5.1 384 kbps: Дубляж (R5)
Язык : Russian
Default : Да
Forced : Нет

Аудио #2
Идентификатор : 3
Формат : DTS
Формат/Информация : Digital Theater Systems
Режим : 16
Параметр Endianness формата : Big
Идентификатор кодека : A_DTS
Продолжительность : 1 ч. 37 м.
Вид битрейта : Постоянный
Битрейт : 1509 Кбит/сек
Каналы : 6 каналов
Расположение каналов : Front: L C R, Side: L R, LFE
Частота : 48,0 КГц
Битовая глубина : 24 бит
Метод сжатия : С потерями
Размер потока : 1,02 Гбайт (15%)
Заголовок : DTS 5.1 1536 kbps: Одноголосный (Ю. Немахов)
Язык : Russian
Default : Нет
Forced : Нет

Аудио #3
Идентификатор : 4
Формат : DTS
Формат/Информация : Digital Theater Systems
Режим : 16
Параметр Endianness формата : Big
Идентификатор кодека : A_DTS
Продолжительность : 1 ч. 37 м.
Вид битрейта : Постоянный
Битрейт : 1509 Кбит/сек
Каналы : 6 каналов
Расположение каналов : Front: L C R, Side: L R, LFE
Частота : 48,0 КГц
Битовая глубина : 24 бит
Метод сжатия : С потерями
Размер потока : 1,02 Гбайт (15%)
Заголовок : DTS 5.1 1536 kbps
Default : Нет
Forced : Нет

Текст #1
Идентификатор : 5
Формат : UTF-8
Идентификатор кодека : S_TEXT/UTF8
Идентификатор кодека/Информация : UTF-8 Plain Text
Заголовок : Форсированные R5
Язык : Russian
Default : Да
Forced : Нет

Текст #2
Идентификатор : 6
Формат : UTF-8
Идентификатор кодека : S_TEXT/UTF8
Идентификатор кодека/Информация : UTF-8 Plain Text
Заголовок : Полные R5
Язык : Russian
Default : Нет
Forced : Нет

Текст #3
Идентификатор : 7
Формат : UTF-8
Идентификатор кодека : S_TEXT/UTF8
Идентификатор кодека/Информация : UTF-8 Plain Text
Заголовок : Полные R5
Язык : Ukrainian
Default : Нет
Forced : Нет

Текст #4
Идентификатор : 8
Формат : UTF-8
Идентификатор кодека : S_TEXT/UTF8
Идентификатор кодека/Информация : UTF-8 Plain Text
Default : Нет
Forced : Нет

Текст #5
Идентификатор : 9
Формат : UTF-8
Идентификатор кодека : S_TEXT/UTF8
Идентификатор кодека/Информация : UTF-8 Plain Text
Заголовок : SDH
Default : Нет
Forced : Нет

Меню
00:00:00.000 : en:00:00:00.000
00:06:17.085 : en:00:06:17.085
00:10:47.355 : en:00:10:47.355
00:14:59.023 : en:00:14:59.023
00:20:54.878 : en:00:20:54.878
00:25:52.467 : en:00:25:52.467
00:31:21.546 : en:00:31:21.546
00:40:18.249 : en:00:40:18.249
00:46:43.133 : en:00:46:43.133
00:54:42.988 : en:00:54:42.988
00:59:43.204 : en:00:59:43.204
01:05:21.125 : en:01:05:21.125
01:12:58.582 : en:01:12:58.582
01:18:33.959 : en:01:18:33.959
01:26:28.725 : en:01:26:28.725
01:29:41.876 : en:01:29:41.876


Лузеры скачать торрент




pb.wtf



Скачать Лузеры через торрент http://pic.kartinco.top/images/3/4rceghmbav.png Скачать фильм Лузеры через торрент бесплантно в хорошем качестве Описание: «Лузеры» — сумасшедший экшн о предательстве и мести, рассказывающий о членах элитного отряда специального назначения, которых ... 9.3 10 14
Info! Золотая раздача, скачанное не засчитывается.
Торрент: Зарегистрирован [2013-06-26 10:11] · скачан: 113 раз
Статус: √ проверено
Размер: 6.75 GB
Как cкачать? Как скачать Лузеры через торрент | qTorrent

% Раздел Тема Автор DL S | L
Фильмы 2010 [ 1.36 GB ] Лузеры / The Losers [2010 HDRip]лицензия L_E_X Скачать
1 | 0
Фильмы 2010 [ 744 MB ] Лузеры / The Losers [2010 HDRip лицензия] .::}{0TT@БЬ)Ч::. Скачать
1 | 0
Фильмы [HD 720p, 1080p] (Хороший звук DUB, MVO) [ 10.79 GB ] Лузеры / The Losers [2010 BDRip 1080p] DUB Sub rus + original eng Shmel Скачать
1 | 0
Фильмы (DVD фильмы) [ 4.36 GB ] Лузеры / The Losers [2010 DVD5 лицензия] nickson-82 Скачать
1 | 0
Фильмы (DVD фильмы) [ 4.67 GB ] Лузеры / The Losers [2010 DVD9 лицензия] nickson-82 Скачать
1 | 0
Фильмы 2010 [ 740 MB ] Лузеры / The Losers [2010 HDRip] SD Скачать
1 | 0
Фильмы 2010 [ 1.36 GB ] Лузеры / The Losers [2010 HDRip] aspace Скачать
1 | 0

28-11-2019 20:33  

Отключить всю рекламу на сайте

26-06-2013 11:05 Лузеры Скачать торрент  

фильм каллpb.wtf



    Дорогой пользователь! Огромная просьба, поблагодарите релизера, оцените раздачу и оставьте свои комментарий, если Вы скачали Лузеры через торрент бесплатно! Внесите свою лепту в развитие PiratBit!
    Комментировать посты могут только пользователи прошедшие не сложную регистрацию
    Показать сообщения:    

    Лузеры через торрент
    Скачать бесплатно Лузеры
    Лузеры скачать торрент
    Лузеры смотреть онлайн
    Cкачать фильм Лузеры бесплатно
    Лузеры скачать торрент в хорошем качестве
    Лузеры смотреть онлайн бесплатно в хорошем качестве


    Вы не можете начинать темы
    Вы не можете отвечать на сообщения
    Вы не можете редактировать свои сообщения
    Вы не можете удалять свои сообщения
    Вы не можете голосовать в опросах
    Вы не можете прикреплять файлы к сообщениям
    Вы можете скачивать файлы