2 сезон

iTunes

MVO

1

2 сезон

iTunes

iTunes

1 сезон

RePack

30

Ultimate

ВАЖНО

ИГРА 18+

pack

RePack

MK11
pack

Легкие деньги

RePack

jed

RePack

fifa19

RePack

RDR2

RePack

NEED FOR SPEED™ PAYBACK

4 сезон

9 сезон

Бесстыжие 9 сезон

Все сериалы

все сериалы на PB.wtf

RePack

FAR CRY 5

Anonymous, доброй ночи, мы не успеваем собрать деньги на оплату серверов за декабрь и январь, помогите нам пожалуйста в это трудное время. В качестве благодарности мы отключим Вам всю рекламу на сайте (укажите свой ник в строку Ваше имя)!

×
  
Magnet ссылка

Невероятный Бёрт Уандерстоун / The Incredible Burt Wonderstone (Дон Скардино) [2013 г., комедия, BDRip-AVC, Профессиональный (многоголосый закадровый), лицензия] pb.wtf

Невероятный Бёрт Уандерстоун через торрент pb.wtf

Размер: 2.26 GB | Добавлен: 7 лет 6 мес. назад | Торрент скачан:470 раз
Скачать  

26-06-2013 21:59 Невероятный Бёрт Уандерстоун Скачать торрент  

Невероятный Бёрт Уандерстоун / The Incredible Burt Wonderstone
  • Год выпуска: 2013
  • Страна: США
  • Жанр: комедия
  • Продолжительность: 100 мин. / 01:40:18
  • Перевод: Профессиональный (многоголосый закадровый), Лицензия
  • Субтитры: Английские


  • Режиссер: Дон Скардино
  • Продюссер: Крис Бендер, Стив Карелл, Тайлер Митчелл
  • Сценарий: Джонатан М. Голдштейн, Джон Фрэнсис Дейли, Чад Калтген

  • Бюджет: $30 000 000
  • Премьера в мире: 8 марта 2013





  • В ролях: Стив Карелл, Стив Бушеми, Оливия Уайлд, Джим Керри, Джеймс Гандольфини, Алан Аркин, Джей Мор, Михаэль Хербиг, Мэйсон Кук, Люк Ванек

  • Описание: Фильм рассказывает историю двух фокусников-конкурентов в Лас-Вегасе. Берт Уандерстоун однажды во время исполнения номера лишается напарника, и все оставшееся время пытается вернуть себе мотивацию и вернуться к любимому занятию.

  • Качество: BDRip-AVC
  • Формат: MKV
  • Видео кодек: H.264
  • Аудио кодек: AC3
  • Видео: H.264, 1056x440 (2,40:1), 23,976 fps, 2334 Кbps, 0.210 bit/pixel
  • Аудио#1: 48 kHz, AC3 Dolby Digital, 3/2 (L,C,R,l,r) + LFE ch, 448.00 kbps | RUS
  • Аудио#2: 48 kHz, AC3 Dolby Digital, 3/2 (L,C,R,l,r) + LFE ch, 448.00 kbps | ENG










    D:Neverojatnyj.Bjort.Uanderstoune.2013.P.BDRip.
    General
    Unique ID : 236880989759401122791800680754114757558 (0xB2359E802E14E58084C3D833EEBC83B6)
    Complete name : D:Neverojatnyj.Bjort.Uanderstoune.2013.P.BDRip.
    Format : Matroska
    Format version : Version 2
    File size : 2.26 GiB
    Duration : 1h 40mn
    Overall bit rate : 3 232 Kbps
    Movie name :
    Encoded date : UTC 2013-06-26 15:02:07
    Writing application : mkvmerge v5.9.0 ('On The Loose') built on Dec 15 2012 16:39:58
    Writing library : libebml v1.3.0 + libmatroska v1.4.0
    Video #1
    ID : 1
    Format : AVC
    Format/Info : Advanced Video Codec
    Format profile : High@L4.1
    Format settings, CABAC : Yes
    Format settings, ReFrames : 10 frames
    Codec ID : V_MPEG4/ISO/AVC
    Duration : 1h 40mn
    Bit rate : 2 334 Kbps
    Width : 1 056 pixels
    Height : 440 pixels
    Display aspect ratio : 2.40:1
    Frame rate : 23.976 fps
    Color space : YUV
    Chroma subsampling : 4:2:0
    Bit depth : 8 bits
    Scan type : Progressive
    Bits/(Pixel*Frame) : 0.210
    Stream size : 1.59 GiB (70%)
    Writing library : x264 core 125 r2208 d9d2288
    Encoding settings : cabac=1 / ref=10 / deblock=1:-2:-1 / analyse=0x3:0x133 / me=umh / subme=11 / psy=1 / psy_rd=1.04:0.00 / mixed_ref=1 / me_range=32 / chroma_me=1 / trellis=2 / 8x8dct=1 / cqm=0 / deadzone=21,11 / fast_pskip=0 / chroma_qp_offset=-2 / threads=9 / lookahead_threads=1 / sliced_threads=0 / nr=0 / decimate=1 / interlaced=0 / bluray_compat=0 / constrained_intra=0 / bframes=11 / b_pyramid=2 / b_adapt=2 / b_bias=0 / direct=3 / weightb=1 / open_gop=0 / weightp=2 / keyint=240 / keyint_min=23 / scenecut=40 / intra_refresh=0 / rc_lookahead=150 / rc=2pass / mbtree=1 / bitrate=2334 / ratetol=1.0 / qcomp=0.70 / qpmin=0 / qpmax=69 / qpstep=4 / cplxblur=20.0 / qblur=0.5 / vbv_maxrate=20000 / vbv_bufsize=20000 / nal_hrd=none / ip_ratio=1.35 / aq=1:0.80
    Language : English
    Default : Yes
    Forced : No
    Audio #2
    ID : 2
    Format : AC-3
    Format/Info : Audio Coding 3
    Mode extension : CM (complete main)
    Format settings, Endianness : Big
    Codec ID : A_AC3
    Duration : 1h 40mn
    Bit rate mode : Constant
    Bit rate : 448 Kbps
    Channel(s) : 6 channels
    Channel positions : Front: L C R, Side: L R, LFE
    Sampling rate : 48.0 KHz
    Bit depth : 16 bits
    Compression mode : Lossy
    Stream size : 321 MiB (14%)
    Title : MVO | DD 5.1 @ 448 kbps
    Language : Russian
    Default : Yes
    Forced : Yes
    Audio #3
    ID : 3
    Format : AC-3
    Format/Info : Audio Coding 3
    Mode extension : CM (complete main)
    Format settings, Endianness : Big
    Codec ID : A_AC3
    Duration : 1h 40mn
    Bit rate mode : Constant
    Bit rate : 448 Kbps
    Channel(s) : 6 channels
    Channel positions : Front: L C R, Side: L R, LFE
    Sampling rate : 48.0 KHz
    Bit depth : 16 bits
    Compression mode : Lossy
    Stream size : 321 MiB (14%)
    Title : Original | DD 5.1 @ 448 kbps
    Language : English
    Default : No
    Forced : No
    Text #4
    ID : 4
    Format : UTF-8
    Codec ID : S_TEXT/UTF8
    Codec ID/Info : UTF-8 Plain Text
    Language : English
    Default : No

    Forced : No


    Невероятный Бёрт Уандерстоун скачать торрент


    pb.wtf



  • Скачать Невероятный Бёрт Уандерстоун через торрент http://pic.kartinco.top/images/3/t4rvow9x2a.png Скачать фильм Невероятный Бёрт Уандерстоун через торрент бесплантно в хорошем качестве Описание: Фильм рассказывает историю двух фокусников-конкурентов в Лас-Вегасе. Берт Уандерстоун однажды во время исполнения номера лишается ... 8.2 10 5
    Info! Золотая раздача, скачанное не засчитывается.
    Торрент: Зарегистрирован [2013-06-26 21:59] · скачан: 470 раз
    Статус: √ проверено
    Размер: 2.26 GB
    Как cкачать? Как скачать Невероятный Бёрт Уандерстоун через торрент | UTorrent

    % Раздел Тема Автор DL S | L
    Фильмы 2013 [DVDrip, WEB-DLRip, HDrip] [ 1.36 GB ] Невероятный Бёрт Уандерстоун / The Incredible Burt Wonderstone [ 2013 HDRip ] MVO [лицензия ] Ворон Скачать
    1 | 0
    Фильмы 2013 [DVDrip, WEB-DLRip, HDrip] [ 2.05 GB ] Невероятный Бёрт Уандерстоун / The Incredible Burt Wonderstone [ 2013 HDRip ] MVO [лицензия ] Ворон Скачать
    1 | 0

    28-11-2019 20:33  

    Отключить всю рекламу на сайте

      Дорогой пользователь! Огромная просьба, поблагодарите релизера, оцените раздачу и оставьте свои комментарий, если Вы скачали Невероятный Бёрт Уандерстоун через торрент бесплатно! Внесите свою лепту в развитие PiratBit!
      Комментировать посты могут только пользователи прошедшие не сложную регистрацию
      Показать сообщения:    

      Невероятный Бёрт Уандерстоун через торрент
      Скачать бесплатно Невероятный Бёрт Уандерстоун
      Невероятный Бёрт Уандерстоун скачать торрент
      Невероятный Бёрт Уандерстоун смотреть онлайн
      Cкачать фильм Невероятный Бёрт Уандерстоун бесплатно
      Невероятный Бёрт Уандерстоун скачать торрент в хорошем качестве
      Невероятный Бёрт Уандерстоун смотреть онлайн бесплатно в хорошем качестве


      Вы не можете начинать темы
      Вы не можете отвечать на сообщения
      Вы не можете редактировать свои сообщения
      Вы не можете удалять свои сообщения
      Вы не можете голосовать в опросах
      Вы не можете прикреплять файлы к сообщениям
      Вы можете скачивать файлы