Ссылка на приватное зеркало всего за 1$. Внимание количество ограничено!!!

iTunes

1+1

iTunes

мы

WEB-DL

1

iTunes

Чернобыль

iTunes

Ральф против интернета

Лицензия

ПШазам

Лицензия

Оно 2

Лицензия

30
pack

Вам бонус

ВАЖНО

!!Акция!!

Alien_RageХит недели

RePack

Resident Evil 21

ИГРА 18+

pack

RePack

jed

!!Акция!!

Alien_Rage

RePack

fifa19

RePack

Assassins Creed: Odyssey

RePack

NEED FOR SPEED™ PAYBACK

3 сезон

9 сезон

Бесстыжие 9 сезон

Все сериалы

все сериалы на PB.wtf

RePack

FAR CRY 5
Ребята, катастрофически не хватает 1900р. для оплаты серверов за Октябрь (всвязи с блокировками трафик упал в 3 раза), 1-2р., выручайте.
  

Фантом / Phantom (Тодд Робинсон) [2013 г., триллер, HDRip, MVO] pb.wtf

Фантом через торрент pb.wtf

Размер: 1.46 GB | Добавлен: 6 лет 5 мес. назад | Торрент скачан:315 раз
Скачать  

27-06-2013 18:52 Фантом Скачать торрент  

Фантом / PhantomГод выпуска: 2013
Страна: США / Trilogy Entertainment Group
Жанр: триллер,
Продолжительность: 01:38:22
Перевод: Любительский многоголосый

Режиссер: Тодд Робинсон

Премьера в мире: 1 марта 2013



В ролях: Эд Харрис, Дэвид Духовны, Уильям Фихтнер, Лэнс Хенриксен, Джонатон Шек, Джейсон Бех, Дагмара Доминчук, Дерек Магияр, Шон Патрик, Флэнери Джейсон, Грей-Стенфорд,

Описание: Капитан советской подводной лодки держит в своих руках судьбу всего мира. Вынужденному покинуть свою семью, ему приходится возглавить секретную миссию окутанную тайной…

Качество: HDRip
Формат: AVI
Видео кодек: XviD
Аудио кодек: AC3
Видео: 1661 kb/s, 720x304, 24 fps
Аудио#1: AC3, 448 kb/s (6 ch), 48 kHz

Общее
Полное имя : E:Download-UT++Phantom.2013.HDRip.avi
Формат : AVI
Формат/Информация : Audio Video Interleave
Размер файла : 1,46 Гбайт
Продолжительность : 1 ч. 38 м.
Общий поток : 2118 Кбит/сек
Программа кодирования : VirtualDubMod 1.5.10.2 (build 2540/release)
Библиотека кодирования : VirtualDubMod build 2540/release

Видео
Идентификатор : 0
Формат : MPEG-4 Visual
Профиль формата : Advanced Simple@L5
Параметр BVOP формата : 2
Параметр QPel формата : Нет
Параметр GMC формата : Без точки перехода
Параметр матрицы формата : Выборочная
Идентификатор кодека : XVID
Идентификатор кодека/Подсказка : XviD
Продолжительность : 1 ч. 38 м.
Битрейт : 1661 Кбит/сек
Ширина : 720 пикселей
Высота : 304 пикселя
Соотношение сторон : 2,35:1
Частота кадров : 23,976 кадра/сек
Цветовое пространство : YUV
Субдискретизация насыщенности : 4:2:0
Битовая глубина : 8 бит
Тип развёртки : Прогрессивная
Метод сжатия : С потерями
Бит/(Пиксели*Кадры) : 0.316
Размер потока : 1,14 Гбайт (78%)
Библиотека кодирования : XviD 1.2.1 (UTC 2008-12-04)

Аудио
Идентификатор : 1
Формат : AC-3
Формат/Информация : Audio Coding 3
Расширение режима : CM (complete main)
Параметр Endianness формата : Big
Идентификатор кодека : 2000
Продолжительность : 1 ч. 38 м.
Вид битрейта : Постоянный
Битрейт : 448 Кбит/сек
Каналы : 6 каналов
Расположение каналов : Front: L C R, Side: L R, LFE
Частота : 48,0 КГц
Битовая глубина : 16 бит
Метод сжатия : С потерями
Размер потока : 316 Мбайт (21%)
Выравнивание : Разделение по промежуткам
Продолжительность промежутка : 42 мс. (1,00 видеокадр)
Время предзагрузки промежутка : 500 мс.

pb.wtf



Скачать Фантом через торрент http://uploadpic.ru/img/2013-06/27/ndojn0slhon7yz6d0r5qus2va.jpg Скачать фильм Фантом через торрент бесплантно в хорошем качестве Описание: Капитан советской подводной лодки держит в своих руках судьбу всего мира. Вынужденному покинуть свою семью, ему приходится ... 8.6 10 15
Info! Золотая раздача, скачанное не засчитывается.
Торрент: Зарегистрирован [2013-06-27 18:52] · скачан: 315 раз
Статус: √ проверено
Размер: 1.46 GB
Как cкачать? Как скачать Фантом через торрент | qTorrent

% Раздел Тема Автор DL S | L
Фильмы [HD 720p, 1080p] (Хороший звук DUB, MVO) [ 10.45 GB ] Фантомная боль / Phantomschmerz [2009 биография BDRip 1080p by msltel] MVO VO msltel Скачать
1 | 0
Фильмы [HD 720p, 1080p] (Хороший звук DUB, MVO) [ 4.09 GB ] Фантомная боль / Phantomschmerz [2009 биография BDRip 720p by msltel] MVO VO msltel Скачать
1 | 0
Фильмы 2013 [DVDrip, WEB-DLRip, HDrip] [ 2.14 GB ] Фантом / Phantom [2013 BDRip-AVC MOV ] AlexG77 Скачать
1 | 0
Фильмы 2012 [ 1.46 GB ] Фантом / Phantom [2012 HDRip] MVO [лицензия] Ворон Скачать
1 | 0
Фильмы 2013 [DVDrip, WEB-DLRip, HDrip] [ 744 MB ] Фантом / Phantom [2013 BDRip-AVC] MVO () sokol_ok Скачать
2 | 0
Фильмы (DVD фильмы) [ 5.77 GB ] Фантом / Phantom [2013 DVD9] R5 voovaz Скачать
1 | 0
Фильмы [HD 720p, 1080p] (Хороший звук DUB, MVO) [ 12.24 GB ] Фантом / Phantom [ 2012 BDRip [1080p]MVO [лицензия] Ворон Скачать
1 | 0

28-11-2019 20:33  

Отключить всю рекламу на сайте

21-12-2013 22:35 Фантом Скачать торрент  

Церковь - католическая
Руку в приветствии не прикладывают к голове БЕЗ головного убора
УШАНКИ - НЕ НАШИ
ЗамПолит - взбзднул!pb.wtf



    Дорогой пользователь! Огромная просьба, поблагодарите релизера, оцените раздачу и оставьте свои комментарий, если Вы скачали Фантом через торрент бесплатно! Внесите свою лепту в развитие PiratBit!
    Комментировать посты могут только пользователи прошедшие не сложную регистрацию
    Показать сообщения:    

    Фантом через торрент
    Скачать бесплатно Фантом
    Фантом скачать торрент
    Фантом смотреть онлайн
    Cкачать фильм Фантом бесплатно
    Фантом скачать торрент в хорошем качестве
    Фантом смотреть онлайн бесплатно в хорошем качестве


    Вы не можете начинать темы
    Вы не можете отвечать на сообщения
    Вы не можете редактировать свои сообщения
    Вы не можете удалять свои сообщения
    Вы не можете голосовать в опросах
    Вы не можете прикреплять файлы к сообщениям
    Вы можете скачивать файлы