новый адрес
Ссылка на приватное зеркало всего за 1$. Внимание количество ограничено!!!

iTunes

1+1

iTunes

мы

WEB-DL

1

iTunes

Чернобыль

iTunes

Ральф против интернета

Лицензия

ПШазам

Лицензия

Оно 2

Лицензия

30
pack

Вам бонус

ВАЖНО

!!Акция!!

Alien_RageХит недели

RePack

Resident Evil 21

ИГРА 18+

pack

RePack

jed

!!Акция!!

Alien_Rage

RePack

fifa19

RePack

Assassins Creed: Odyssey

RePack

NEED FOR SPEED™ PAYBACK

3 сезон

9 сезон

Бесстыжие 9 сезон

Все сериалы

все сериалы на PB.wtf

RePack

FAR CRY 5
Ребята, катастрофически не хватает 1900р. для оплаты серверов за Октябрь (всвязи с блокировками трафик упал в 3 раза), 1-2р., выручайте.
  

Сага о викингах: тёмные времена / Viking Saga: The Darkest Day (Крис Кроу / Chris Crow) [ 2013 , Великобритания , боевик, триллер, приключения , HDRip ] VO [den904] pb.wtf

Сага о викингах: тёмные времена через торрент pb.wtf

Размер: 700 MB | Добавлен: 6 лет 5 мес. назад | Торрент скачан:738 раз
Скачать  

30-06-2013 19:11 Сага о викингах: тёмные времена Скачать торрент  

Сага о викингах: тёмные времена / A Viking Saga: The Darkest Day


  • Год выпуска:2013
  • Страна: Великобритания
  • Жанр:боевик, триллер, приключения
  • Продолжительность: 01:26:50
  • Перевод:Любительский (одноголосый)

  • Субтитры: Нет
    • Режиссер: Крис Кроу / Chris Crow
    • Продюсер: Graham Davidson, Энтони Смит / Antony Smith, Крэйг Осборн / Craig Osborne
    • Сценарий:Крис Кроу / Chris Crow, Graham Davidson

  • В ролях:Марк Льюис Джонс (Aethelwulf), Майкл Джибсон (Hamal), Марк Пикеринг (Hereward), Гари Маверс (Drengr), Элен Риз (Eara), Джошуа Ричардс (Hadrada), Кристофер Годвин (Athelstan), Сара Паркс (Denegifu), Пол Джибсон (Yngvarr), Хув Гармон (Atelic), Джейсон Мэй (Arn), Ричард Элфин (Older Hereward)
    • Описание:
      Основано на реальных событиях.Брошенный в мир, полный жестокости, крови и убийств,Херевард, начинающий монах,должен доставить в безопасный монастырь Ионы Святое Еванигелие Линдисфарнского - книгу необычной красоты и силы.В то же время её хочет захватить адский батальон смерти викингов.По дороге в монастырь он встречает жестокого и искусного фехтовальщика, который откликается на его мольбы и посвящает свою жизнь защите Хереварда на то время, пока тот доставляет книгу.Посреди пути они сталкиваются с викингами, готовыми убивать ради того, чтобы получить то, что они хотят.

  • Рейтинг
    MPAA: R - Лицам до 17 лет обязательно присутствие взрослого
    • Качество: HDRip
    • Формат: AVI
    • Видео кодек: XviD
    • Аудио кодек: AC3
    • Видео: XviD, 640x272 (2.35:1), 989 kbps, 25 fps
    • Аудио: MP3 / 2.0 / 48 kHz / 128 kbps /

    Общее
    Полное имя : D:ТорентыA.Viking.Saga.The.Darkest.Day.2013.L1.HDRip.700mb.avi
    Формат : AVI
    Формат/Информация : Audio Video Interleave
    Размер файла : 700 Мбайт
    Продолжительность : 1 ч. 26 м.
    Общий поток : 1127 Кбит/сек
    Программа кодирования : VirtualDubMod 1.5.10.2 (build 2540/release)
    Библиотека кодирования : VirtualDubMod build 2540/release

    Видео
    Идентификатор : 0
    Формат : MPEG-4 Visual
    Профиль формата : Advanced Simple@L5
    Параметр BVOP формата : 2
    Параметр QPel формата : Нет
    Параметр GMC формата : Без точки перехода
    Параметр матрицы формата : Default (H.263)
    Идентификатор кодека : XVID
    Идентификатор кодека/Подсказка : XviD
    Продолжительность : 1 ч. 26 м.
    Битрейт : 989 Кбит/сек
    Ширина : 640 пикселей
    Высота : 272 пикселя
    Соотношение сторон : 2,35:1
    Частота кадров : 25,000 кадров/сек
    Цветовое пространство : YUV
    Субдискретизация насыщенности : 4:2:0
    Битовая глубина : 8 бит
    Тип развёртки : Прогрессивная
    Метод сжатия : С потерями
    Бит/(Пиксели*Кадры) : 0.227
    Размер потока : 614 Мбайт (88%)
    Библиотека кодирования : XviD 73

    Аудио
    Идентификатор : 1
    Формат : MPEG Audio
    Версия формата : Version 1
    Профиль формата : Layer 3
    Идентификатор кодека : 55
    Идентификатор кодека/Подсказка : MP3
    Продолжительность : 1 ч. 26 м.
    Вид битрейта : Постоянный
    Битрейт : 128 Кбит/сек
    Каналы : 2 канала
    Частота : 48,0 КГц
    Метод сжатия : С потерями
    Размер потока : 79,5 Мбайт (11%)
    Выравнивание : Соединение по промежуткам
    Продолжительность промежутка : 40 мс. (1,00 видеокадр)
    Время предзагрузки промежутка : 504 мс.
    Библиотека кодирования : LAME3.99.5
    Сценарий: Крис Кроу / Chris Crow, Graham Davidson
    Продюсер: Graham Davidson, Энтони Смит / Antony Smith, Крэйг Осборн / Craig Osborne
    Оператор: Алекс Меткалф / Alex Metcalfe
    Композитор: Марк Рутерфорд / Mark Rutherford

    Мировая премьера: 12 июня 2013




    © Оформление by Vetalpb.wtf



  • Скачать Сага о викингах: тёмные времена через торрент http://i4.imageban.ru/out/2013/06/30/bc50a609d57ec0f3c2ec83a1706c7ddc.png Скачать фильм Сага о викингах: тёмные времена через торрент бесплантно в хорошем качестве Описание:Основано на реальных событиях.Брошенный в мир, полный жестокости, крови и убийств,Херевард, начинающий монах,должен доставить в ... 9.1 10 20
    Info! Золотая раздача, скачанное не засчитывается.
    Торрент: Зарегистрирован [2013-06-30 19:11] · скачан: 738 раз
    Статус: √ проверено
    Размер: 700 MB
    Как cкачать? Как скачать Сага о викингах: тёмные времена через торрент | qTorrent

    % Раздел Тема Автор DL S | L
    Фильмы 2013 (Звук TS, Cam, VO, DVO) [ 1.37 GB ] Сага о викингах: тёмные времена / Viking Saga: The Darkest Day [ 2013 HDRip ] VO [den904] Ворон Скачать
    1 | 0

    28-11-2019 20:33  

    Отключить всю рекламу на сайте

    20-07-2013 15:23 Сага о викингах: тёмные времена Скачать торрент  

    Адский батальон смерти викингов.....ЧТО ЗА ТУПИЦА ЭТО ПИСАЛ?????????? это,по сути ,читается как смерть викингам.....ну и дальше, по сути....pb.wtf



    20-07-2013 15:45 Сага о викингах: тёмные времена Скачать торрент  

    Тупое кино. Я его сразу удалил.
    Категорически не рекомендую. Религиозный отмороженный гон.pb.wtf



      Дорогой пользователь! Огромная просьба, поблагодарите релизера, оцените раздачу и оставьте свои комментарий, если Вы скачали Сага о викингах: тёмные времена через торрент бесплатно! Внесите свою лепту в развитие PiratBit!
      Комментировать посты могут только пользователи прошедшие не сложную регистрацию
      Показать сообщения:    

      Сага о викингах: тёмные времена через торрент
      Скачать бесплатно Сага о викингах: тёмные времена
      Сага о викингах: тёмные времена скачать торрент
      Сага о викингах: тёмные времена смотреть онлайн
      Cкачать фильм Сага о викингах: тёмные времена бесплатно
      Сага о викингах: тёмные времена скачать торрент в хорошем качестве
      Сага о викингах: тёмные времена смотреть онлайн бесплатно в хорошем качестве


      Вы не можете начинать темы
      Вы не можете отвечать на сообщения
      Вы не можете редактировать свои сообщения
      Вы не можете удалять свои сообщения
      Вы не можете голосовать в опросах
      Вы не можете прикреплять файлы к сообщениям
      Вы можете скачивать файлы