Ссылка на приватное зеркало нашего сайта всего за 1$. Внимание количество ограничено!!!

2 сезон

iTunes

1 сезон

1

iTunes

iTunes

iTunes

1 сезон

RePack

30

ИГРА 18+

pack

ВАЖНО

!!Акция!!

Alien_RageХит недели

RePack

MK11
pack

Забери бонус

RePack

jed

!!Акция!!

Alien_Rage

RePack

fifa19

RePack

Assassins Creed: Odyssey

RePack

NEED FOR SPEED™ PAYBACK

4 сезон

9 сезон

Бесстыжие 9 сезон

Все сериалы

все сериалы на PB.wtf

RePack

FAR CRY 5
  

Убийство на 100 миллионов (Роман Мушегян) [2013, Детектив, драма, DVDRip] [ лицензия ] pb.wtf

Убийство на 100 миллионов через торрент pb.wtf

Размер: 1.37 GB | Добавлен: 7 лет 3 мес. назад | Торрент скачан:635 раз
Скачать  

01-07-2013 22:00 Убийство на 100 миллионов Скачать торрент  

Убийство на 100 миллионов


  • Год выпуска:2013
  • Страна: Россия
  • Жанр:детектив
  • Продолжительность: 01:47:14
  • Перевод:Не требуется

  • Субтитры: Нет
    • Режиссер: Роман Мушегян
    • Продюсер: Михаил Погосов
    • Сценарий:Михаил Погосов

  • В ролях:Олег Шкловский (Сергей Крючков), Алёна Яковлева (Софья), Михаил Ремизов, Сергей Комаров, Екатерина Стриженова (Алиса), Станислав Эрклиевский (Роберт), Сергей Астахов (Антон), Роман Полянский (Костя), Мария Антипп (Алёна), Борис Эстрин (Олег Моисеевич), Иван Николаев (Птицын), Дмитрий Муляр (Малис)
    • Описание:
      В одном крупном банке поздно вечером происходит взрыв. В это время на месте должен был находиться владелец банка, но кабинет разворочен, а тело не нашли. Подозрение в организации взрыва и пропаже большой суммы падает на ближайший круг банкира. У каждого был свой мотив сделать это. Все близкие люди банкира попадают под пристальное внимание полиции и криминальных кругов. В результате расследования на свет выплывают многие нелицеприятные факты из жизни всех героев истории, и как следствие, мотивы каждого из них множатся на глазах! Кто же, в конце концов, окажется тем самым, кто организовал взрыв и присвоил 100 миллионов?


    • Качество: DVDRip
    • Формат: AVI
    • Видео кодек: XviD
    • Аудио кодек: AC3
    • Видео: XviD, 720x352 (2.045), 1625 kbps, 25 fps, 0,257 bpp
    • Аудио: AC3 / 2.0 / 48 kHz / 192 kbps / 16 bit

    General
    Complete name : D:ТорентыUbyistvo.2013.O.DVDRip.1400MB.avi
    Format : AVI
    Format/Info : Audio Video Interleave
    File size : 1.37 GiB
    Duration : 1h 47mn
    Overall bit rate : 1 828 Kbps
    Writing application : VirtualDubMod 1.5.10.3 | www.virtualdub-fr.org || (build 2550/release)
    Writing library : VirtualDubMod build 2550/release

    Video
    ID : 0
    Format : MPEG-4 Visual
    Format profile : Advanced Simple@L5
    Format settings, BVOP : 2
    Format settings, QPel : No
    Format settings, GMC : No warppoints
    Format settings, Matrix : Default (MPEG)
    Codec ID : XVID
    Codec ID/Hint : XviD
    Duration : 1h 47mn
    Bit rate : 1 626 Kbps
    Width : 720 pixels
    Height : 352 pixels
    Display aspect ratio : 2.045
    Frame rate : 25.000 fps
    Color space : YUV
    Chroma subsampling : 4:2:0
    Bit depth : 8 bits
    Scan type : Progressive
    Compression mode : Lossy
    Bits/(Pixel*Frame) : 0.257
    Stream size : 1.22 GiB (89%)
    Writing library : XviD 1.2.1 (UTC 2008-12-04)

    Audio
    ID : 1
    Format : AC-3
    Format/Info : Audio Coding 3
    Mode extension : CM (complete main)
    Codec ID : 2000
    Duration : 1h 47mn
    Bit rate mode : Constant
    Bit rate : 192 Kbps
    Channel(s) : 2 channels
    Channel positions : Front: L R
    Sampling rate : 48.0 KHz
    Bit depth : 16 bits
    Compression mode : Lossy
    Delay relative to video : 1s 800ms
    Stream size : 147 MiB (11%)
    Alignment : Split accross interleaves
    Interleave, duration : 40 ms (1.00 video frame)
    Interleave, preload duration : 500 ms
    Сценарий: Михаил Погосов
    Продюсер: Михаил Погосов
    Оператор: Сурен Тадевосян

    Релиз на DVD: 25 апреля 2013, «Мистерия Звука»




    © Оформление by Vetalpb.wtf



  • Скачать Убийство на 100 миллионов через торрент http://i2.imageban.ru/out/2013/07/02/373d25d99c61e202ef3a8a9c6822c2e5.jpg Скачать фильм Убийство на 100 миллионов через торрент бесплантно в хорошем качестве Описание:В одном крупном банке поздно вечером происходит взрыв. В это время на месте должен был находиться владелец банка, но кабинет ... 9.2 10 28
    Info! Золотая раздача, скачанное не засчитывается.
    Торрент: Зарегистрирован [2013-07-01 22:00] · скачан: 635 раз
    Статус: √ проверено
    Размер: 1.37 GB
    Как cкачать? Как скачать Убийство на 100 миллионов через торрент | qTorrent

    28-11-2019 20:33  

    Отключить всю рекламу на сайте

    06-07-2013 14:15 Убийство на 100 миллионов Скачать торрент  

    как кино стоящиеpb.wtf



    07-07-2013 17:58 Убийство на 100 миллионов Скачать торрент  

    у нас щас чё, все режиссёры хачики???!!!pb.wtf



    09-07-2013 15:13 Убийство на 100 миллионов Скачать торрент  

    REGIS1975

    Цитата:

    Все близкие люди банкира попадают под пристальное внимание полиции... Кто же, в конце концов, окажется тем самым, кто организовал взрыв и присвоил 100 миллионов?

    pb.wtf



      Дорогой пользователь! Огромная просьба, поблагодарите релизера, оцените раздачу и оставьте свои комментарий, если Вы скачали Убийство на 100 миллионов через торрент бесплатно! Внесите свою лепту в развитие PiratBit!
      Комментировать посты могут только пользователи прошедшие не сложную регистрацию
      Показать сообщения:    

      Убийство на 100 миллионов через торрент
      Скачать бесплатно Убийство на 100 миллионов
      Убийство на 100 миллионов скачать торрент
      Убийство на 100 миллионов смотреть онлайн
      Cкачать фильм Убийство на 100 миллионов бесплатно
      Убийство на 100 миллионов скачать торрент в хорошем качестве
      Убийство на 100 миллионов смотреть онлайн бесплатно в хорошем качестве


      Вы не можете начинать темы
      Вы не можете отвечать на сообщения
      Вы не можете редактировать свои сообщения
      Вы не можете удалять свои сообщения
      Вы не можете голосовать в опросах
      Вы не можете прикреплять файлы к сообщениям
      Вы можете скачивать файлы