Достать ножи: Стеклянная луковица

MVO

Добыча

Дубляж

Уэнсдэй

1 сезон

Тор

Дубляж

13 клиническая

1 сезон

Жестокая ночь

MVO

Одни из нас

1 сезон

Deluxe

pack

Рекомендуем

30

Пиратка

ВАЖНО

ВАЖНО

Ghostwire

Пиратка

jed

RePack

nioh2

RePack

RDR2

RePack

NEED FOR SPEED™ PAYBACK

RePack

скачать торрент

Кинопоиск HD

Острые козырьки 6 сезон

6 сезон

FAR CRY 6

RePack

скачать торрент

Лицензия

скачать торрент

MVO

1

1 сезон

скачать торрент

1 сезон

скачать торрент

Лицензия

  

Робот и Фрэнк / Robot & Frank (Джейк Шрейер) [2012 г., фантастика, драма, комедия, криминал, BDRip-AVC, Профессиональный (многоголосый закадровый), лицензия]

Робот и Фрэнк через торрент pb.wtf

Размер: 1.46 GB | Добавлен: 9 лет 6 мес. назад | Торрент скачан:537 раз
Смотреть онлайн | Скачать | Поддержите нас   

02-07-2013 09:36 Робот и Фрэнк Скачать торрент  

Робот и Фрэнк / Robot & Frank
  • Год выпуска: 2012
  • Страна: США
  • Жанр: фантастика, драма, комедия, криминал
  • Продолжительность: 01:29:00
  • Перевод: Профессиональный (многоголосый закадровый), Лицензия
  • Субтитры: Русские (полные + форс.), английские, английские (SDH)

  • Режиссер: Джейк Шрейер
  • Продюссер: Лэнс Экорд, Джеки Келман Бисби, Сэм Бисби
  • Сценарий: Кристофер Д. Форд

  • Бюджет: $2 500 000




  • В ролях: Фрэнк Ланджелла, Джеймс Марсден, Лив Тайлер, Сьюзен Сарандон, Питер Сарсгаард, Джереми Стронг, Дарио Бароссо, Бонни Бентли, Ана Гастейер, Рэйчел Ма

  • Описание: Фильм о трогательной дружбе старика и робота. История заключается в том, что пожилой мужчина, Фрэнк, в прошлом, кстати, вор-взломщик, живет в одиночестве. Его уже взрослые дети далеко, и чтобы хоть как-то помочь стареющему отцу, у которого начинает развиваться болезнь Альцгеймера, сын дарит Фрэнку робота-компаньона. Действие фильма происходит в не очень далеком будущем, роботы в домашнем хозяйстве — вполне нормальное явление. Поскольку Фрэнк считает себя человеком самостоятельным и не желает, чтобы за ним кто-то или что-то присматривало, он с опаской относится к подаренному роботу.


  • Качество: BDRip-AVC
  • Формат: MKV
  • Видео кодек: H.264
  • Аудио кодек: AC3
  • Видео: H.264, 1056x440 (2,40:1), 23,976 fps, 1576 Кbps, 0.141 bit/pixel
  • Аудио#1: 48 kHz, AC3 Dolby Digital, 3/2 (L,C,R,l,r) + LFE ch, 384.00 kbps | RUS
  • Аудио#2: 48 kHz, AC3 Dolby Digital, 3/2 (L,C,R,l,r) + LFE ch, 384.00 kbps | ENG






    D:Robot.i.Frenk.2012.P.BDRip.
    General
    Unique ID : 178345950544397974527506607729179926269 (0x862C2E3FD2C3189995CA928972D89EFD)
    Complete name : D:Robot.i.Frenk.2012.P.BDRip.
    Format : Matroska
    Format version : Version 2
    File size : 1.46 GiB
    Duration : 1h 29mn
    Overall bit rate : 2 346 Kbps
    Movie name :
    Encoded date : UTC 2013-05-14 04:46:02
    Writing application : mkvmerge v5.9.0 ('On The Loose') built on Dec 15 2012 16:39:58
    Writing library : libebml v1.3.0 + libmatroska v1.4.0
    Video #1
    ID : 1
    Format : AVC
    Format/Info : Advanced Video Codec
    Format profile : [email protected]
    Format settings, CABAC : Yes
    Format settings, ReFrames : 10 frames
    Codec ID : V_MPEG4/ISO/AVC
    Duration : 1h 29mn
    Bit rate : 1 576 Kbps
    Width : 1 056 pixels
    Height : 440 pixels
    Display aspect ratio : 2.40:1
    Frame rate : 23.976 fps
    Color space : YUV
    Chroma subsampling : 4:2:0
    Bit depth : 8 bits
    Scan type : Progressive
    Bits/(Pixel*Frame) : 0.141
    Stream size : 975 MiB (65%)
    Title : Robot & Frank
    Writing library : x264 core 125 r2208 d9d2288
    Encoding settings : cabac=1 / ref=10 / deblock=1:-2:-1 / analyse=0x3:0x133 / me=esa / subme=11 / psy=1 / psy_rd=1.08:0.03 / mixed_ref=1 / me_range=48 / chroma_me=1 / trellis=2 / 8x8dct=1 / cqm=0 / deadzone=21,11 / fast_pskip=0 / chroma_qp_offset=-3 / threads=9 / lookahead_threads=1 / sliced_threads=0 / nr=0 / decimate=1 / interlaced=0 / bluray_compat=0 / constrained_intra=0 / bframes=11 / b_pyramid=2 / b_adapt=2 / b_bias=0 / direct=3 / weightb=1 / open_gop=0 / weightp=2 / keyint=240 / keyint_min=23 / scenecut=40 / intra_refresh=0 / rc_lookahead=150 / rc=2pass / mbtree=1 / bitrate=1576 / ratetol=1.0 / qcomp=0.70 / qpmin=0 / qpmax=69 / qpstep=4 / cplxblur=20.0 / qblur=0.5 / vbv_maxrate=20000 / vbv_bufsize=20000 / nal_hrd=none / ip_ratio=1.35 / aq=1:0.80
    Language : English
    Default : Yes
    Forced : No
    Audio #2
    ID : 2
    Format : AC-3
    Format/Info : Audio Coding 3
    Mode extension : CM (complete main)
    Format settings, Endianness : Big
    Codec ID : A_AC3
    Duration : 1h 29mn
    Bit rate mode : Constant
    Bit rate : 384 Kbps
    Channel(s) : 6 channels
    Channel positions : Front: L C R, Side: L R, LFE
    Sampling rate : 48.0 KHz
    Bit depth : 16 bits
    Compression mode : Lossy
    Stream size : 244 MiB (16%)
    Title : MVO | DD 5.1 @ 384 kbps
    Language : Russian
    Default : Yes
    Forced : Yes
    Audio #3
    ID : 3
    Format : AC-3
    Format/Info : Audio Coding 3
    Mode extension : CM (complete main)
    Format settings, Endianness : Big
    Codec ID : A_AC3
    Duration : 1h 29mn
    Bit rate mode : Constant
    Bit rate : 384 Kbps
    Channel(s) : 6 channels
    Channel positions : Front: L C R, Side: L R, LFE
    Sampling rate : 48.0 KHz
    Bit depth : 16 bits
    Compression mode : Lossy
    Stream size : 244 MiB (16%)
    Title : Original | DD 5.1 @ 384 kbps
    Language : English
    Default : No
    Forced : No
    Text #4
    ID : 4
    Format : UTF-8
    Codec ID : S_TEXT/UTF8
    Codec ID/Info : UTF-8 Plain Text
    Title : SDH
    Language : English
    Default : No
    Forced : No
    Text #5
    ID : 5
    Format : UTF-8
    Codec ID : S_TEXT/UTF8
    Codec ID/Info : UTF-8 Plain Text
    Title : Full
    Language : English
    Default : No
    Forced : No
    Text #6
    ID : 6
    Format : UTF-8
    Codec ID : S_TEXT/UTF8
    Codec ID/Info : UTF-8 Plain Text
    Title : Forced
    Language : Russian
    Default : Yes
    Forced : Yes
    Text #7
    ID : 7
    Format : UTF-8
    Codec ID : S_TEXT/UTF8
    Codec ID/Info : UTF-8 Plain Text
    Title : Full
    Language : Russian
    Default : No

    Forced : No


    Робот и Фрэнк скачать торрент





  • Скачать Робот и Фрэнк через торрент https://pic1.kartinco.top/images/23/5d2b2wwk1f.jpg Скачать, смотреть онлайн Робот и Фрэнк бесплантно в хорошем качестве Описание: Фильм о трогательной дружбе старика и робота. История заключается в том, что пожилой мужчина, Фрэнк, в прошлом, кстати, ... 10 10 22
    Info! Золотая раздача, скачанное не засчитывается.
    Торрент: Зарегистрирован [2013-07-02 09:36] · скачан: 537 раз
    Статус: √ проверено
    Размер: 1.46 GB
    Как cкачать? Как скачать Робот и Фрэнк через торрент | UTorrent

    % Раздел Тема Автор DL S | L
    Фильмы 2012 [ 1.34 GB ] Робот и Фрэнк / Robot & Frank | MVO | DVDRip, MVO, лицензия Seedtank Скачать
    1 | 0
    Фильмы [HD 720p, 1080p] (Хороший звук DUB, MVO) [ 9.27 GB ] Робот и Фрэнк / Robot & Frank | MVO | 1080p, MVO, лицензия [email protected] Скачать
    1 | 0
    Фильмы [HD 720p, 1080p] (Хороший звук DUB, MVO) [ 5.27 GB ] Робот и Фрэнк / Robot & Frank | MVO | 720p, MVO, лицензия [email protected] Скачать
    1 | 0

    28-11-2019 20:33  


    Отключить вcю реклaмy на сайте, в т.ч. и в плеере онлайн просмотра!

    02-07-2013 13:08 Робот и Фрэнк Скачать торрент  

    Отличный фильм



    02-07-2013 17:35 Робот и Фрэнк Скачать торрент  

    Уматовый,добрый фильм,советую к просмотру.Раздающему поклон.



    02-07-2013 21:43 Робот и Фрэнк Скачать торрент  

    Офигительный фильм!!!Очень понравился ))) Всем советую к просмотру!!!



      Дорогой пользователь! Огромная просьба, поблагодарите релизера, оцените раздачу и оставьте свои комментарий, если Вы скачали Робот и Фрэнк через торрент бесплатно!!
      Комментировать посты могут только пользователи прошедшие не сложную регистрацию
      Показать сообщения:    


      Робот и Фрэнк через торрент
      Скачать бесплатно Робот и Фрэнк
      Робот и Фрэнк скачать торрент
      Робот и Фрэнк смотреть онлайн
      Cкачать фильм Робот и Фрэнк бесплатно
      Робот и Фрэнк скачать торрент в хорошем качестве
      Робот и Фрэнк смотреть онлайн бесплатно в хорошем качестве
      Вы не можете начинать темы
      Вы не можете отвечать на сообщения
      Вы не можете редактировать свои сообщения
      Вы не можете удалять свои сообщения
      Вы не можете голосовать в опросах
      Вы не можете прикреплять файлы к сообщениям
      Вы можете скачивать файлы
      Робот и Фрэнк / Robot & Frank [2012 г., фантастика, драма, комедия, криминал, BDRip-AVC, Профессиональный , лицензия] смотреть онлайн, скачать торрент picoco.icu