1 сезон

1 сезон

iTunes

1

КиноПоиск HD

Кинопоиск HD

iTunes

13

1 сезон

RePack

30

Новинка

ВАЖНО

ИГРА 18+

pack

RePack

MK11
pack

Легкие деньги

RePack

jed

RePack

fifa19

RePack

RDR2

RePack

NEED FOR SPEED™ PAYBACK

4 сезон

9 сезон

Бесстыжие 9 сезон

Все сериалы

все сериалы на PB.wtf

RePack

FAR CRY 5
  
Magnet ссылка

Когда солнце было богом / Stara basn. Kiedy slonce bylo bogiem (Ежи Гоффман) [2003 г., Исторический, драма, фэнтези, DVDRip] MVO pb.wtf

Когда солнце было богом через торрент pb.wtf

Размер: 1.46 GB | Добавлен: 7 лет 9 мес. назад | Торрент скачан:367 раз
Скачать  

02-07-2013 10:27 Когда солнце было богом Скачать торрент  

Когда солнце было богом / Stara basn. Kiedy slonce bylo bogiem

Год выпуска: 2003
Страна: Польша
Жанр: Исторический, драма, фэнтези
Продолжительность: 01:42:45
Перевод: Профессиональный (многоголосый, закадровый)
Субтитры: Нет

Режиссер: Ежи Гоффман

В ролях: Михал Жебровский, Марина Александрова, Малгожата Форемняк, Даниэль Ольбрыхский, Богдан Ступка, Анна Дымна, Эва Висьневска, Мачей Козловский, Ежи Треля, Анджей Печиньский

Описание: Действие происходит в Европе, в 9 веке. Многочисленные славянские племена живут на землях, которые в наши дни являются Польшей. Каждое племя поклоняется собственным богам. Жестокий князь, Попел (по легендам, съеденный мышами), и его коварная жена, бывшая невольница, делают все возможное, чтобы передать титул своему сыну (на что он не имеет прав). Полководец армии Попеля, Пястун, пресытившись интригами и жесткостью своего властителя, покидает его.

Попел жаждет мщения и посылает своих людей найти и убить, но Пястун спасется благодаря молодому воину, Земовиту. Земовит довольно долго жил у Викингов и только недавно вернулся на Родину. Он влюбляется в прекрасную Дэиву, дочь Виша (одного из вассалов Попеля). Земовит хочет жениться, но судьба Дзивы предрешена — волей ее отца она должна стать жрицей в местном святилище…



Качество: DVDRip
Формат: AVI
Видео кодек: XviD
Аудио кодек: AC3
Видео: 720x304 (2.37:1), 25 fps, XviD build 50 ~1634 kbps avg, 0.30 bit/pixel
Аудио: 48 kHz, AC3 Dolby Digital, 3/2 (L,C,R,l,r) + LFE ch, ~384 kbps
Общее
Полное имя : D:VideoKogda.Solnze.DVDRip.Lesnik125.avi
Формат : AVI
Формат/Информация : Audio Video Interleave
Размер файла : 1,46 Гбайт
Продолжительность : 1 ч. 42 м.
Общий поток : 2029 Кбит/сек
Название фильма : Когда солнце было богом / Stara basn. Kiedy slonce bylo bogiem
Режиссёр : SC Kosmos
Жанр : Action / Fantasy
Программа кодирования : VirtualDubMod 1.5.10.2 (build 2540/release)
Формат оригинала/Имя : Film
Правообладатель : 2011-03-01
Примечание : Rip by Lesnik125

Видео
Идентификатор : 0
Формат : MPEG-4 Visual
Профиль формата : Advanced Simple@L5
Параметр BVOP формата : 1
Параметр QPel формата : Нет
Параметр GMC формата : Без точки перехода
Параметр матрицы формата : Выборочная
Идентификатор кодека : XVID
Идентификатор кодека/Подсказка : XviD
Продолжительность : 1 ч. 42 м.
Битрейт : 1635 Кбит/сек
Ширина : 720 пикселей
Высота : 304 пикселя
Соотношение сторон : 2,35:1
Частота кадров : 25,000 кадров/сек
Цветовое пространство : YUV
Субдискретизация насыщенности : 4:2:0
Битовая глубина : 8 бит
Тип развёртки : Прогрессивная
Метод сжатия : С потерями
Бит/(Пиксели*Кадры) : 0.299
Размер потока : 1,17 Гбайт (81%)
Библиотека кодирования : XviD 1.2.1 (UTC 2008-12-04)

Аудио
Идентификатор : 1
Формат : AC-3
Формат/Информация : Audio Coding 3
Расширение режима : CM (complete main)
Параметр Endianness формата : Big
Идентификатор кодека : 2000
Продолжительность : 1 ч. 42 м.
Вид битрейта : Постоянный
Битрейт : 384 Кбит/сек
Каналы : 6 каналов
Расположение каналов : Front: L C R, Side: L R, LFE
Частота : 48,0 КГц
Битовая глубина : 16 бит
Метод сжатия : С потерями
Размер потока : 282 Мбайт (19%)
Выравнивание : Разделение по промежуткам
Продолжительность промежутка : 40 мс. (1,00 видеокадр)
Время предзагрузки промежутка : 500 мс.
pb.wtf



Скачать Когда солнце было богом через торрент https://pic.kartinco.top/images/3/41jxv9kyc1.jpg Скачать фильм Когда солнце было богом через торрент бесплантно в хорошем качестве Описание: Действие происходит в Европе, в 9 веке. Многочисленные славянские племена живут на землях, которые в наши дни являются Польшей. ... 9.6 10 14
Info! Золотая раздача, скачанное не засчитывается.
Торрент: Зарегистрирован [2013-07-02 10:27] · скачан: 367 раз
Статус: √ проверено
Размер: 1.46 GB
Как cкачать? Как скачать Когда солнце было богом через торрент | UTorrent

28-11-2019 20:33  

Отключить всю рекламу на сайте


02-07-2013 15:53 Когда солнце было богом Скачать торрент  

такая ерундаpb.wtf



02-07-2013 18:05 Когда солнце было богом Скачать торрент  


pb.wtf



02-07-2013 18:09 Когда солнце было богом Скачать торрент  

и че там курят наши сценаристы, вообще непонятно.pb.wtf



    Дорогой пользователь! Огромная просьба, поблагодарите релизера, оцените раздачу и оставьте свои комментарий, если Вы скачали Когда солнце было богом через торрент бесплатно! Внесите свою лепту в развитие PiratBit!
    Комментировать посты могут только пользователи прошедшие не сложную регистрацию
    Показать сообщения:    

    Когда солнце было богом через торрент
    Скачать бесплатно Когда солнце было богом
    Когда солнце было богом скачать торрент
    Когда солнце было богом смотреть онлайн
    Cкачать фильм Когда солнце было богом бесплатно
    Когда солнце было богом скачать торрент в хорошем качестве
    Когда солнце было богом смотреть онлайн бесплатно в хорошем качестве


    Вы не можете начинать темы
    Вы не можете отвечать на сообщения
    Вы не можете редактировать свои сообщения
    Вы не можете удалять свои сообщения
    Вы не можете голосовать в опросах
    Вы не можете прикреплять файлы к сообщениям
    Вы можете скачивать файлы