1 сезон

3 сезон

iTunes

1

iTunes

DUB Netflix

iTunes

13

1 сезон

RePack

30

Deluxe

pack

Легкие деньги

ВАЖНО

ИГРА 18+

pack

RePack

MK11

RePack

jed

RePack

fifa19

RePack

RDR2

RePack

NEED FOR SPEED™ PAYBACK

4 сезон

9 сезон

Бесстыжие 9 сезон

Все сериалы

все сериалы на PB.wtf

RePack

FAR CRY 5

Anonymous, добрый вечер, мы не успеваем до 1 числа собрать деньги на оплату серверов, помогите нам пожалуйста в это трудное время. В качестве благодарности мы отключим Вам всю рекламу на сайте (укажите свой ник в строку Ваше имя)!

×
  
Magnet ссылка

Экзамен для двоих / Admission (Пол Вайц) [2013 г., драма, мелодрама, комедия, MOV pb.wtf

Экзамен для двоих через торрент pb.wtf

Размер: 1.4 GB | Добавлен: 7 лет 11 мес. назад | Торрент скачан:158 раз
Скачать  

02-07-2013 10:40 Экзамен для двоих Скачать торрент  

Экзамен для двоих / AdmissionГод выпуска: 2013
Страна: США
Жанр: драма, мелодрама, комедия,
Продолжительность: 01:47:07
Перевод: Любительское (многоголосое)

Режиссер: Пол Вайц



В ролях: Тина Фей, Пол Радд, Майкл Шин, Уоллес Шоун, Лили Томлин, Энн Харада, Бен Левин, Дэн Леви, Мэгги Кинэн-Болджер, Глория Рубен,

Описание: Полли Нельсон работает в приемной комиссии престижного университета, она — вершитель судеб многих подростков. Но как устроить собственную судьбу? Появление идеального мужчины вовсе не обещает мир и покой, наоборот, приносит в её жизнь множество дурацких ситуаций и не всегда приятных сюрпризов. А тут ещё объявляется сын, которого Полли считала потерянным, и он, увы, далеко не отличник. Что спасать в первую очередь, карьеру или личную жизнь?

Качество: HDRip
Формат: AVI
Видео кодек: XviD
Аудио кодек: AC3
Видео: 1478 kb/s, 720x304, 24 fps
Аудио#1: AC3, 384 kb/s (6 ch), 48 kHz

Общее
Полное имя : E:Download-UT++Ekzamen.dlia.dvoih.2012.P.HDRip.1400Mb.avi
Формат : AVI
Формат/Информация : Audio Video Interleave
Размер файла : 1,40 Гбайт
Продолжительность : 1 ч. 47 м.
Общий поток : 1871 Кбит/сек
Название фильма : Ekzamen.dlia.dvoih.2012.P.HDRip.1400Mb.INTERCINEMA
Режиссёр : INTERCINEMA
Программа кодирования : VirtualDubMod 1.5.10.2 (build 2540/release)
Формат оригинала/Имя : Movie
Правообладатель : http://www.intercinema.ws

Видео
Идентификатор : 0
Формат : MPEG-4 Visual
Профиль формата : Advanced Simple@L5
Параметр BVOP формата : 1
Параметр QPel формата : Нет
Параметр GMC формата : Без точки перехода
Параметр матрицы формата : Default (H.263)
Режим смешивания : Сжатый битовый поток
Идентификатор кодека : XVID
Идентификатор кодека/Подсказка : XviD
Продолжительность : 1 ч. 47 м.
Битрейт : 1478 Кбит/сек
Ширина : 720 пикселей
Высота : 304 пикселя
Соотношение сторон : 2,35:1
Частота кадров : 23,976 кадра/сек
Цветовое пространство : YUV
Субдискретизация насыщенности : 4:2:0
Битовая глубина : 8 бит
Тип развёртки : Прогрессивная
Метод сжатия : С потерями
Бит/(Пиксели*Кадры) : 0.282
Размер потока : 1,11 Гбайт (79%)
Библиотека кодирования : XviD 1.2.1 (UTC 2008-12-04)

Аудио
Идентификатор : 1
Формат : AC-3
Формат/Информация : Audio Coding 3
Расширение режима : CM (complete main)
Параметр Endianness формата : Big
Идентификатор кодека : 2000
Продолжительность : 1 ч. 47 м.
Вид битрейта : Постоянный
Битрейт : 384 Кбит/сек
Каналы : 6 каналов
Расположение каналов : Front: L C R, Side: L R, LFE
Частота : 48,0 КГц
Битовая глубина : 16 бит
Метод сжатия : С потерями
Размер потока : 294 Мбайт (21%)
Выравнивание : Разделение по промежуткам
Продолжительность промежутка : 42 мс. (1,00 видеокадр)
Время предзагрузки промежутка : 500 мс.
pb.wtf



Скачать Экзамен для двоих через торрент http://uploadpic.ru/img/2013-07/02/oxl18x9aij9q36hrvc78fxjq3.jpg Скачать фильм Экзамен для двоих через торрент бесплантно в хорошем качестве Описание: Полли Нельсон работает в приемной комиссии престижного университета, она — вершитель судеб многих подростков. Но как устроить ... 9.8 10 9
Info! Золотая раздача, скачанное не засчитывается.
Торрент: Зарегистрирован [2013-07-02 10:40] · скачан: 158 раз
Статус: √ проверено
Размер: 1.4 GB
Как cкачать? Как скачать Экзамен для двоих через торрент | UTorrent

28-11-2019 20:33  

Отключить всю рекламу на сайте

    Дорогой пользователь! Огромная просьба, поблагодарите релизера, оцените раздачу и оставьте свои комментарий, если Вы скачали Экзамен для двоих через торрент бесплатно! Внесите свою лепту в развитие PiratBit!
    Комментировать посты могут только пользователи прошедшие не сложную регистрацию
    Показать сообщения:    

    Экзамен для двоих через торрент
    Скачать бесплатно Экзамен для двоих
    Экзамен для двоих скачать торрент
    Экзамен для двоих смотреть онлайн
    Cкачать фильм Экзамен для двоих бесплатно
    Экзамен для двоих скачать торрент в хорошем качестве
    Экзамен для двоих смотреть онлайн бесплатно в хорошем качестве


    Вы не можете начинать темы
    Вы не можете отвечать на сообщения
    Вы не можете редактировать свои сообщения
    Вы не можете удалять свои сообщения
    Вы не можете голосовать в опросах
    Вы не можете прикреплять файлы к сообщениям
    Вы можете скачивать файлы