2 сезон

iTunes

MVO

1

2 сезон

iTunes

iTunes

1 сезон

RePack

30

Новинка

ВАЖНО

ИГРА 18+

pack

RePack

MK11
pack

Легкие деньги

RePack

jed

RePack

fifa19

RePack

RDR2

RePack

NEED FOR SPEED™ PAYBACK

4 сезон

9 сезон

Бесстыжие 9 сезон

Все сериалы

все сериалы на PB.wtf

RePack

FAR CRY 5

Anonymous, добрый вечер, мы не успеваем собрать деньги на оплату серверов за декабрь и январь, помогите нам пожалуйста в это трудное время. В качестве благодарности мы отключим Вам всю рекламу на сайте (укажите свой ник в строку Ваше имя)!

×
  
Magnet ссылка

Великий мастер / Yi dai zong shi (Вонг Кар-Вай / Wong Kar Wai) [ 2013 , Гонконг, Китай, США , боевик, драма , DVDRip ] DUB [лицензия ] pb.wtf

Великий мастер через торрент pb.wtf

Размер: 1.46 GB | Добавлен: 7 лет 6 мес. назад | Торрент скачан:2543 раза
Скачать  

01-07-2013 16:11 Великий мастер Скачать торрент  

Великий мастер / Yi dai zong shi


  • Год выпуска:2013
  • Страна: Гонконг, Китай, США
  • Жанр:боевик, драма
  • Продолжительность: 01:57:58
  • Перевод:Профессиональный (полное дублирование)[Лицензия ]

  • Субтитры: Нет
    • Режиссер: Вонг Кар-Вай / Wong Kar Wai
    • Продюсер: Йи Ва «Джеки» Пэнг / Yi Wah «Jacky» Pang, Вонг Кар-Вай / Wong Kar Wai, Сяомин Янь / Xiaoming Yan, Юй Дун / Yu Dong, Гоцин Гу / Guoqing Gu
    • Сценарий:Вонг Кар-Вай / Wong Kar Wai, Сюй Хаофэн / Xu Haofeng, Джинджи Зу / Jingzhi Zou

  • В ролях:Чжан Цзыи (Gong Er), Тони Люн Чу Вай (Yip Man), Кунг Ле (Tiexieqi), Сон Хё Гю (Cheung Wing-sing, (Zhang Yongcheng)), Чжан Чжэнь (The Razor Yixiantian), Юэнь Ву-Пин (Chan Wah-shun, (Chen Huashun)), Сю-Люн Люн, Чеунг-Ян Юэнь, Джана Хо (Golden Pavilion Courtesan), Бэньшань Жао (Ding Lianshan), Менг Ло, Джин Чжан (Ma San)
    • Описание:
      Основатель старейшей Школы боевых искусств намерен уйти на покой и передать дела достойному преемнику. Но самый лучший его ученик вынашивает куда более амбициозные планы - он намерен объединить все разрозненные школы в одну. С этой целью он вызывает на поединок лидера каждой школы и, одерживая победу раз за разом, объединяет все школы. Последней остается школа его умершего учителя, отстоять память которого на поединок выходит его дочь, тайно влюбленная в своего соперника...

  • Рейтинг
    kinopoisk.ru: 6.777 (1114)
    imdb.com: 6.60 (4 388)
    • Качество: DVDRip
    • Формат: AVI
    • Видео кодек: XviD
    • Аудио кодек: AC3
    • Видео: XviD, 720x320 (2.25:1), 1378 kbps, 25 fps, 0,239 bpp
    • Аудио: AC3 / 5.1 / 48 kHz / 384 kbps / 16 bit

    General
    Complete name : D:ТорентыVelikij.master.2013.D.DVDRip.1400MB.avi
    Format : AVI
    Format/Info : Audio Video Interleave
    File size : 1.46 GiB
    Duration : 1h 57mn
    Overall bit rate : 1 772 Kbps
    Writing application : VirtualDubMod 1.5.10.2 (build 2540/release)
    Writing library : VirtualDubMod build 2540/release

    Video
    ID : 0
    Format : MPEG-4 Visual
    Format profile : Advanced Simple@L5
    Format settings, BVOP : 2
    Format settings, QPel : No
    Format settings, GMC : No warppoints
    Format settings, Matrix : Default (MPEG)
    Codec ID : XVID
    Codec ID/Hint : XviD
    Duration : 1h 57mn
    Bit rate : 1 379 Kbps
    Width : 720 pixels
    Height : 320 pixels
    Display aspect ratio : 2.25:1
    Frame rate : 25.000 fps
    Color space : YUV
    Chroma subsampling : 4:2:0
    Bit depth : 8 bits
    Scan type : Progressive
    Compression mode : Lossy
    Bits/(Pixel*Frame) : 0.239
    Stream size : 1.14 GiB (78%)
    Writing library : XviD 1.2.1 (UTC 2008-12-04)

    Audio
    ID : 1
    Format : AC-3
    Format/Info : Audio Coding 3
    Mode extension : CM (complete main)
    Codec ID : 2000
    Duration : 1h 57mn
    Bit rate mode : Constant
    Bit rate : 384 Kbps
    Channel(s) : 6 channels
    Channel positions : Front: L C R, Side: L R, LFE
    Sampling rate : 48.0 KHz
    Bit depth : 16 bits
    Compression mode : Lossy
    Delay relative to video : 1s 800ms
    Stream size : 324 MiB (22%)
    Alignment : Split accross interleaves
    Interleave, duration : 40 ms (1.00 video frame)
    Interleave, preload duration : 500 ms
    • Для подготовки к своей роли Тони Люн Чу Вай тренировался в течение года по четыре часа в день.
    • Проект был анонсирован почти за 10 лет до его релиза. Такая задержка была вызвана бесконечным перфекционизмом режиссера Вонга Кар-Вая. За этот период было выпущено несколько фильмов об Ип Мане (наиболее известные из них - «Ип Ман», 2008, и «Ип Ман 2», 2010).
    • На монтаж фильма ушло более года, прежде чем режиссер Вонг Кар-Вай был удовлетворен.
    Сценарий: Вонг Кар-Вай / Wong Kar Wai, Сюй Хаофэн / Xu Haofeng, Джинджи Зу / Jingzhi Zou
    Продюсер: Йи Ва «Джеки» Пэнг / Yi Wah «Jacky» Pang, Вонг Кар-Вай / Wong Kar Wai, Сяомин Янь / Xiaoming Yan, Юй Дун / Yu Dong, Гоцин Гу / Guoqing Gu
    Оператор: Филипп Ле Сурд / Philippe Le Sourd
    Композитор: Натэниел Мекали / Nathaniel Mechaly, Сигэру Умэбваяси / Shigeru Umebayashi

    Сборы в России: $292 221
    Сборы в мире: $53 482 943

    Мировая премьера: 8 января 2013
    Релиз на DVD: 3 июля 2013, «Кармен Видео»
    Релиз на Blu-ray: 3 июля 2013, «Кармен Видео»



    скриншот   скриншот   скриншот   скриншот  
    © Оформление by Vetalpb.wtf



  • Скачать Великий мастер через торрент http://i47.fastpic.ru/big/2013/0521/8a/516ffed8f0b5ff2b3930c80f0ef36b8a.jpg Скачать фильм Великий мастер через торрент бесплантно в хорошем качестве Описание:Основатель старейшей Школы боевых искусств намерен уйти на покой и передать дела достойному преемнику. Но самый лучший его ученик ... 9.4 10 66
    Info! Золотая раздача, скачанное не засчитывается.
    Торрент: Зарегистрирован [2013-07-03 13:41] · скачан: 2 543 раз
    Статус: √ проверено
    Размер: 1.46 GB
    Как cкачать? Как скачать Великий мастер через торрент | UTorrent

    % Раздел Тема Автор DL S | L
    Азиатские фильмы [ 1.45 GB ] Великий мастер / Yi dai zong shi / The Grandmaster [2013 биография BDRip-AVC] [Extended Cut] [AVO] killermax2013 Скачать
    1 | 0
    Фильмы (Blu-ray, BD-Remux, HDDVD) [ 15.7 GB ] Великий мастер / Yi dai zong shi [2013 BD-Remux лицензия] Ворон Скачать
    1 | 0
    Фильмы (DVD фильмы) [ 6.63 GB ] Великий мастер / Yi dai zong shi [2013 DVD9] R5 voovaz Скачать
    1 | 0

    28-11-2019 20:33  

    Отключить всю рекламу на сайте

    01-07-2013 20:14 Великий мастер Скачать торрент  

    О! А вот и с хорошим, достойным внимания, звуком)pb.wtf



    05-07-2013 13:43 Великий мастер Скачать торрент  

    KIT417 писал(а):

    О! А вот и с хорошим, достойным внимания, звуком)

    +++тогоже ждал)pb.wtf



      Дорогой пользователь! Огромная просьба, поблагодарите релизера, оцените раздачу и оставьте свои комментарий, если Вы скачали Великий мастер через торрент бесплатно! Внесите свою лепту в развитие PiratBit!
      Комментировать посты могут только пользователи прошедшие не сложную регистрацию
      Показать сообщения:    

      Великий мастер через торрент
      Скачать бесплатно Великий мастер
      Великий мастер скачать торрент
      Великий мастер смотреть онлайн
      Cкачать фильм Великий мастер бесплатно
      Великий мастер скачать торрент в хорошем качестве
      Великий мастер смотреть онлайн бесплатно в хорошем качестве


      Вы не можете начинать темы
      Вы не можете отвечать на сообщения
      Вы не можете редактировать свои сообщения
      Вы не можете удалять свои сообщения
      Вы не можете голосовать в опросах
      Вы не можете прикреплять файлы к сообщениям
      Вы можете скачивать файлы