2 сезон

iTunes

MVO

1

2 сезон

iTunes

iTunes

1 сезон

RePack

30

Ultimate

ВАЖНО

ИГРА 18+

pack

RePack

MK11
pack

Легкие деньги

RePack

jed

RePack

fifa19

RePack

RDR2

RePack

NEED FOR SPEED™ PAYBACK

4 сезон

9 сезон

Бесстыжие 9 сезон

Все сериалы

все сериалы на PB.wtf

RePack

FAR CRY 5

Anonymous, доброй ночи, мы не успеваем собрать деньги на оплату серверов за декабрь и январь, помогите нам пожалуйста в это трудное время. В качестве благодарности мы отключим Вам всю рекламу на сайте (укажите свой ник в строку Ваше имя)!

×
  
Magnet ссылка

Джек – покоритель великанов / Jack The Giant Slayer (Брайан Сингер / Bryan Singer) [2013, США, фэнтези, приключения, HDRip] Dub pb.wtf

Джек – покоритель великанов через торрент pb.wtf

Размер: 747 MB | Добавлен: 7 лет 6 мес. назад | Торрент скачан:488 раз
Скачать  

02-06-2013 07:11 Джек – покоритель великанов Скачать торрент  

Джек – покоритель великанов / Jack The Giant Slayer
Год выхода: 2013
Жанр: фэнтези, приключения
Выпущено: США
Продолжительность: 01:54:20
Перевод: Профессиональный (полное дублирование) | Лицензия
Субтитры: Нет

Режиссер: Брайан Сингер / Bryan Singer

В ролях: Николас Холт, Элинор Томлинсон, Юэн МакГрегор, Стэнли Туччи, Эдди Марсан, Юэн Бремнер, Иэн МакШейн, Кристофер Фэйрбэнк, Саймон Лоу, Мингус Джонстон

Описание: История начинается с похищения принцессы, что грозит нарушить хрупкий мир между людьми и великанами. Юный фермер возглавляет вылазку в царство гигантов в надежде спасти девушку.

Качество: HDRip
Формат: AVI
Видео кодек: XviD
Аудио кодек: MP3
Видео: 688x288 (2.39:1), 23.976 fps, XviD build 50 ~776 kbps avg, 0.16 bit/pixel
Аудио: 48 kHz, MPEG Layer 3, 2 ch, ~128.00 kbps avg
Раздача от:
D:Мои рипы. Вторая частьDjek.pokoritel.velikanov.2013.HDRip.745mb.DUB.[YTN]_by_dexter_lex.avi
General
Complete name : D:Мои рипы. Вторая частьDjek.pokoritel.velikanov.2013.HDRip.745mb.DUB.[YTN]_by_dexter_lex.avi
Format : AVI
Format/Info : Audio Video Interleave
File size : 747 MiB
Duration : 1h 54mn
Overall bit rate : 913 Kbps
Writing application : VirtualDubMod 1.5.10.3 | www.virtualdub-fr.org || (build 2550/release)
Writing library : VirtualDubMod build 2550/release
Video #0
ID : 0
Format : MPEG-4 Visual
Format profile : Advanced Simple@L5
Format settings, BVOP : 1
Format settings, QPel : No
Format settings, GMC : No warppoints
Format settings, Matrix : Custom
Codec ID : XVID
Codec ID/Hint : XviD
Duration : 1h 54mn
Bit rate : 776 Kbps
Width : 688 pixels
Height : 288 pixels
Display aspect ratio : 2.39:1
Frame rate : 23.976 fps
Color space : YUV
Chroma subsampling : 4:2:0
Bit depth : 8 bits
Scan type : Progressive
Compression mode : Lossy
Bits/(Pixel*Frame) : 0.163
Stream size : 634 MiB (85%)
Writing library : XviD 1.2.1 (UTC 2008-12-04)
Audio #1
ID : 1
Format : MPEG Audio
Format version : Version 1
Format profile : Layer 3
Codec ID : 55
Codec ID/Hint : MP3
Duration : 1h 54mn
Bit rate mode : Constant
Bit rate : 128 Kbps
Channel(s) : 2 channels
Sampling rate : 48.0 KHz
Compression mode : Lossy
Stream size : 105 MiB (14%)
Alignment : Aligned on interleaves
Interleave, duration : 42 ms (1.00 video frame)
Interleave, preload duration : 504 ms
Writing library : LAME3.99r
Encoding settings : -m s -V 4 -q 2 -lowpass 17 -b 128
pb.wtf



Скачать Джек – покоритель великанов через торрент http://i46.fastpic.ru/big/2013/0531/3d/856bc31fab8047671c413028732e943d.png Скачать фильм Джек – покоритель великанов через торрент бесплантно в хорошем качестве Описание: История начинается с похищения принцессы, что грозит нарушить хрупкий мир между людьми и великанами. Юный фермер возглавляет ... 9.3 10 29
Info! Золотая раздача, скачанное не засчитывается.
Торрент: Зарегистрирован [2013-06-20 07:28] · скачан: 488 раз
Статус: √ проверено
Размер: 747 MB
Как cкачать? Как скачать Джек – покоритель великанов через торрент | UTorrent

% Раздел Тема Автор DL S | L
Фильмы 2013 [DVDrip, WEB-DLRip, HDrip] [ 743 MB ] Джек – покоритель великанов / Jack the Giant Slayer [2013 BDRip-AVC] Dub sokol_ok Скачать
2 | 0
Фильмы 2013 [DVDrip, WEB-DLRip, HDrip] [ 1.47 GB ] Джек – покоритель великанов / Jack the Giant Slayer [2013 BDRip-AVC] Dub + Eng sokol_ok Скачать
2 | 0
Фильмы [HD 720p, 1080p] (Хороший звук DUB, MVO) [ 8.01 GB ] Джек – покоритель великанов / Jack The Giant Slayer [2013 BDRip 1080p] DUB [Line]+Оригинал Ворон Скачать
1 | 0
Фильмы 2013 [DVDrip, WEB-DLRip, HDrip] [ 1.46 GB ] Джек – покоритель великанов / Jack The Giant Slayer [2013 HDRip] Dub dexter lex Скачать
1 | 0
T Фильмы (Blu-ray, BD-Remux, HDDVD) [ 22.82 GB ] Джек – покоритель великанов / Jack The Giant Slayer [2013 Blu-Ray Remux ] DUB [Line]+Оригинал Зайчина Скачать
1 | 0
Фильмы 2013 [DVDrip, WEB-DLRip, HDrip] [ 2.18 GB ] Джек – покоритель великанов / Jack The Giant Slayer [2013 НDRip] DUB [Line]+Оригинал Ворон Скачать
1 | 0


Последний раз редактировалось: dexter lex (2013-06-20 07:29), всего редактировалось 2 раз(а)

28-11-2019 20:33  

Отключить всю рекламу на сайте

20-06-2013 07:28 Джек – покоритель великанов Скачать торрент  

Перезалил на лицензию!pb.wtf



    Дорогой пользователь! Огромная просьба, поблагодарите релизера, оцените раздачу и оставьте свои комментарий, если Вы скачали Джек – покоритель великанов через торрент бесплатно! Внесите свою лепту в развитие PiratBit!
    Комментировать посты могут только пользователи прошедшие не сложную регистрацию
    Показать сообщения:    

    Джек – покоритель великанов через торрент
    Скачать бесплатно Джек – покоритель великанов
    Джек – покоритель великанов скачать торрент
    Джек – покоритель великанов смотреть онлайн
    Cкачать фильм Джек – покоритель великанов бесплатно
    Джек – покоритель великанов скачать торрент в хорошем качестве
    Джек – покоритель великанов смотреть онлайн бесплатно в хорошем качестве


    Вы не можете начинать темы
    Вы не можете отвечать на сообщения
    Вы не можете редактировать свои сообщения
    Вы не можете удалять свои сообщения
    Вы не можете голосовать в опросах
    Вы не можете прикреплять файлы к сообщениям
    Вы можете скачивать файлы