2 сезон

iTunes

MVO

1

2 сезон

iTunes

iTunes

1 сезон

RePack

30

Новинка

ВАЖНО

ИГРА 18+

pack

RePack

MK11
pack

Легкие деньги

RePack

jed

RePack

fifa19

RePack

RDR2

RePack

NEED FOR SPEED™ PAYBACK

4 сезон

9 сезон

Бесстыжие 9 сезон

Все сериалы

все сериалы на PB.wtf

RePack

FAR CRY 5

Anonymous, добрый вечер, мы не успеваем собрать деньги на оплату серверов за декабрь и январь, помогите нам пожалуйста в это трудное время. В качестве благодарности мы отключим Вам всю рекламу на сайте (укажите свой ник в строку Ваше имя)!

×
  
Magnet ссылка

Джек – покоритель великанов / Jack The Giant Slayer (Брайан Сингер / Bryan Singer) [2013, США, фэнтези, приключения, HDRip] Dub pb.wtf

Джек – покоритель великанов через торрент pb.wtf

Размер: 1.46 GB | Добавлен: 7 лет 7 мес. назад | Торрент скачан:1822 раза
Скачать  

19-06-2013 12:44 Джек – покоритель великанов Скачать торрент  

Джек – покоритель великанов / Jack The Giant Slayer
Год выхода: 2013
Жанр: фэнтези, приключения
Выпущено: США
Продолжительность: 01:54:20
Перевод: Профессиональный (полное дублирование) | Лицензия
Субтитры: Нет

Режиссер: Брайан Сингер / Bryan Singer

В ролях: Николас Холт, Элинор Томлинсон, Юэн МакГрегор, Стэнли Туччи, Эдди Марсан, Юэн Бремнер, Иэн МакШейн, Кристофер Фэйрбэнк, Саймон Лоу, Мингус Джонстон

Описание: История начинается с похищения принцессы, что грозит нарушить хрупкий мир между людьми и великанами. Юный фермер возглавляет вылазку в царство гигантов в надежде спасти девушку.

Качество: HDRip
Формат: AVI
Видео кодек: XviD
Аудио кодек: AC3
Видео: 720x304 (2.37:1), 23.976 fps, XviD build 50 ~1376 kbps avg, 0.26 bit/pixel
Аудио: 48 kHz, AC3 Dolby Digital, 3/2 (L,C,R,l,r) + LFE ch, ~448.00 kbps avg
Раздача от:
D:Djek.pokoritel.velikanov.2013.HDRip.DUB.[YTN]_by_dexter_lex.avi
General
Complete name : D:Djek.pokoritel.velikanov.2013.HDRip.LINE.[YTN]_by_dexter_lex.avi
Format : AVI
Format/Info : Audio Video Interleave
File size : 1.46 GiB
Duration : 1h 54mn
Overall bit rate : 1 833 Kbps
Writing application : VirtualDubMod 1.5.10.3 | www.virtualdub-fr.org || (build 2550/release)
Writing library : VirtualDubMod build 2550/release
Video #0
ID : 0
Format : MPEG-4 Visual
Format profile : Advanced Simple@L5
Format settings, BVOP : 1
Format settings, QPel : No
Format settings, GMC : No warppoints
Format settings, Matrix : Custom
Codec ID : XVID
Codec ID/Hint : XviD
Duration : 1h 54mn
Bit rate : 1 376 Kbps
Width : 720 pixels
Height : 304 pixels
Display aspect ratio : 2.37:1
Frame rate : 23.976 fps
Color space : YUV
Chroma subsampling : 4:2:0
Bit depth : 8 bits
Scan type : Progressive
Compression mode : Lossy
Bits/(Pixel*Frame) : 0.262
Stream size : 1.10 GiB (75%)
Writing library : XviD 1.2.1 (UTC 2008-12-04)
Audio #1
ID : 1
Format : AC-3
Format/Info : Audio Coding 3
Mode extension : CM (complete main)
Format settings, Endianness : Big
Codec ID : 2000
Duration : 1h 54mn
Bit rate mode : Constant
Bit rate : 448 Kbps
Channel(s) : 6 channels
Channel positions : Front: L C R, Side: L R, LFE
Sampling rate : 48.0 KHz
Bit depth : 16 bits
Compression mode : Lossy
Stream size : 366 MiB (24%)
Alignment : Split accross interleaves
Interleave, duration : 42 ms (1.00 video frame)
Interleave, preload duration : 500 ms
http://multi-up.com/876900
pb.wtf



Скачать Джек – покоритель великанов через торрент http://i46.fastpic.ru/big/2013/0531/3d/856bc31fab8047671c413028732e943d.png Скачать фильм Джек – покоритель великанов через торрент бесплантно в хорошем качестве Описание: История начинается с похищения принцессы, что грозит нарушить хрупкий мир между людьми и великанами. Юный фермер возглавляет ... 9.3 10 36
Info! Золотая раздача, скачанное не засчитывается.
Торрент: Зарегистрирован [2013-06-19 12:44] · скачан: 1 822 раз
Статус: √ проверено
Размер: 1.46 GB
Как cкачать? Как скачать Джек – покоритель великанов через торрент | UTorrent

% Раздел Тема Автор DL S | L
Фильмы 2013 [DVDrip, WEB-DLRip, HDrip] [ 743 MB ] Джек – покоритель великанов / Jack the Giant Slayer [2013 BDRip-AVC] Dub sokol_ok Скачать
2 | 0
Фильмы 2013 [DVDrip, WEB-DLRip, HDrip] [ 1.47 GB ] Джек – покоритель великанов / Jack the Giant Slayer [2013 BDRip-AVC] Dub + Eng sokol_ok Скачать
3 | 0
Фильмы [HD 720p, 1080p] (Хороший звук DUB, MVO) [ 8.01 GB ] Джек – покоритель великанов / Jack The Giant Slayer [2013 BDRip 1080p] DUB [Line]+Оригинал Ворон Скачать
1 | 0
Фильмы 2013 [DVDrip, WEB-DLRip, HDrip] [ 747 MB ] Джек – покоритель великанов / Jack The Giant Slayer [2013 HDRip] Dub dexter lex Скачать
1 | 0
T Фильмы (Blu-ray, BD-Remux, HDDVD) [ 22.82 GB ] Джек – покоритель великанов / Jack The Giant Slayer [2013 Blu-Ray Remux ] DUB [Line]+Оригинал Зайчина Скачать
1 | 1
Фильмы 2013 [DVDrip, WEB-DLRip, HDrip] [ 2.18 GB ] Джек – покоритель великанов / Jack The Giant Slayer [2013 НDRip] DUB [Line]+Оригинал Ворон Скачать
1 | 0

28-11-2019 20:33  

Отключить всю рекламу на сайте

    Дорогой пользователь! Огромная просьба, поблагодарите релизера, оцените раздачу и оставьте свои комментарий, если Вы скачали Джек – покоритель великанов через торрент бесплатно! Внесите свою лепту в развитие PiratBit!
    Комментировать посты могут только пользователи прошедшие не сложную регистрацию
    Показать сообщения:    

    Джек – покоритель великанов через торрент
    Скачать бесплатно Джек – покоритель великанов
    Джек – покоритель великанов скачать торрент
    Джек – покоритель великанов смотреть онлайн
    Cкачать фильм Джек – покоритель великанов бесплатно
    Джек – покоритель великанов скачать торрент в хорошем качестве
    Джек – покоритель великанов смотреть онлайн бесплатно в хорошем качестве


    Вы не можете начинать темы
    Вы не можете отвечать на сообщения
    Вы не можете редактировать свои сообщения
    Вы не можете удалять свои сообщения
    Вы не можете голосовать в опросах
    Вы не можете прикреплять файлы к сообщениям
    Вы можете скачивать файлы