новый адрес
Ссылка на приватное зеркало всего за 1$. Внимание количество ограничено!!!

iTunes

1+1

iTunes

мы

WEB-DL

1

iTunes

Чернобыль

iTunes

Ральф против интернета

Лицензия

ПШазам

Лицензия

Оно 2

Лицензия

30
pack

Вам бонус

ВАЖНО

!!Акция!!

Alien_RageХит недели

RePack

Resident Evil 21

ИГРА 18+

pack

RePack

jed

!!Акция!!

Alien_Rage

RePack

fifa19

RePack

Assassins Creed: Odyssey

RePack

NEED FOR SPEED™ PAYBACK

3 сезон

9 сезон

Бесстыжие 9 сезон

Все сериалы

все сериалы на PB.wtf

RePack

FAR CRY 5
Ребята, катастрофически не хватает 1900р. для оплаты серверов за Октябрь (всвязи с блокировками трафик упал в 3 раза), 1-2р., выручайте.
  

За канделябрами / Behind the Candelabra (Стивен Содерберг) [2013 г., драма, мелодрама, биография, HDTVRip, VO] [Василий Кошкин] pb.wtf

За канделябрами через торрент pb.wtf

Размер: 2.06 GB | Добавлен: 6 лет 5 мес. назад | Торрент скачан:111 раз
Скачать  

04-07-2013 14:30 За канделябрами Скачать торрент  

За канделябрами / Behind the CandelabraГод выпуска: 2013
Страна: США / HBO Films
Жанр: драма, мелодрама, биография,
Продолжительность: 01:58:28
Перевод: Любительский одноголосый

Режиссер: Стивен Содерберг



В ролях: Майкл Дуглас, Мэтт Дэймон, Дэн Эйкройд, Скотт Бакула, Роб Лоу, Дебби Рейнолдс, Эрик Цуккерман, Эдди Джемисон, Рэнди Лауэлл, Том Роач,

Описание: Байопик о скандально известном пианисте и конферансье Владзиу Валентино Либераче. В 50-х годах он часто появлялся в вызывающих и вычурных нарядах, украшенных искусственными бриллиантами, золотом, мехами и блестками. Популярность он обрел благодаря своим пластинкам, а также частому появлению на телевидении и в кино. Летом 1977 г. в его ложу проник молодой красавец Скотт Торсон, и, несмотря на разницу в возрасте и социальном положении, между мужчинами возникла тайная связь, продолжавшаяся пять лет. Фильм основан на книге самого Скотта Торсона, в которой он раскрывает всю правду об их бурном романе.

Качество: HDTVRip
Формат: AVI
Видео кодек: XviD
Видео: 1908 Kb/s, 720x400, 24 fps
Аудио#1: AC3, 192 Kb/s (2 ch), 48 kHz
Аудио#2: AC3, 384 Kb/s (6 ch), 48 kHz

бщее
Полное имя : E:Download-UT++Za.kandeljabrami.2013.XviD.HDTVRip.avi
Формат : AVI
Формат/Информация : Audio Video Interleave
Профиль формата : OpenDML
Размер файла : 2,06 Гбайт
Продолжительность : 1 ч. 58 м.
Общий поток : 2491 Кбит/сек
Программа кодирования : VirtualDubModRus 1.5.10.2 (build 2542/release)
Библиотека кодирования : VirtualDubMod build 2542/release

Видео
Идентификатор : 0
Формат : MPEG-4 Visual
Профиль формата : Advanced Simple@L5
Параметр BVOP формата : 2
Параметр QPel формата : Нет
Параметр GMC формата : Без точки перехода
Параметр матрицы формата : Выборочная
Идентификатор кодека : XVID
Идентификатор кодека/Подсказка : XviD
Продолжительность : 1 ч. 58 м.
Битрейт : 1897 Кбит/сек
Ширина : 720 пикселей
Высота : 400 пикселей
Соотношение сторон : 16:9
Частота кадров : 23,976 кадра/сек
Цветовое пространство : YUV
Субдискретизация насыщенности : 4:2:0
Битовая глубина : 8 бит
Тип развёртки : Прогрессивная
Метод сжатия : С потерями
Бит/(Пиксели*Кадры) : 0.275
Размер потока : 1,57 Гбайт (76%)
Библиотека кодирования : XviD 1.2.1 (UTC 2008-12-04)

Аудио #1
Идентификатор : 1
Формат : AC-3
Формат/Информация : Audio Coding 3
Расширение режима : CM (complete main)
Параметр Endianness формата : Big
Идентификатор кодека : 2000
Продолжительность : 1 ч. 58 м.
Вид битрейта : Постоянный
Битрейт : 192 Кбит/сек
Каналы : 2 канала
Расположение каналов : Front: L R
Частота : 48,0 КГц
Битовая глубина : 16 бит
Метод сжатия : С потерями
Размер потока : 163 Мбайт (8%)
Выравнивание : Разделение по промежуткам
Продолжительность промежутка : 42 мс. (1,00 видеокадр)
Время предзагрузки промежутка : 500 мс.
Заголовок : Russian

Аудио #2
Идентификатор : 2
Формат : AC-3
Формат/Информация : Audio Coding 3
Расширение режима : CM (complete main)
Параметр Endianness формата : Big
Идентификатор кодека : 2000
Продолжительность : 1 ч. 58 м.
Вид битрейта : Постоянный
Битрейт : 384 Кбит/сек
Каналы : 6 каналов
Расположение каналов : Front: L C R, Side: L R, LFE
Частота : 48,0 КГц
Битовая глубина : 16 бит
Метод сжатия : С потерями
Размер потока : 325 Мбайт (15%)
Выравнивание : Разделение по промежуткам
Продолжительность промежутка : 42 мс. (1,00 видеокадр)
Время предзагрузки промежутка : 500 мс.
Заголовок : English

pb.wtf



Скачать За канделябрами через торрент http://uploadpic.ru/img/2013-07/04/w1pfqao34b957ovpapu6ut26o.png Скачать фильм За канделябрами через торрент бесплантно в хорошем качестве Описание: Байопик о скандально известном пианисте и конферансье Владзиу Валентино Либераче. В 50-х годах он часто появлялся в вызывающих и ... 8.9 10 8
Info! Золотая раздача, скачанное не засчитывается.
Торрент: Зарегистрирован [2013-07-04 14:30] · скачан: 111 раз
Статус: √ проверено
Размер: 2.06 GB
Как cкачать? Как скачать За канделябрами через торрент | qTorrent

% Раздел Тема Автор DL S | L
Фильмы 2013 (Звук TS, Cam, VO, DVO) [ 1.37 GB ] За канделябрами / Behind the Candelabra [2013 биография HDRip VO ] Ворон Скачать
1 | 0


Последний раз редактировалось: k1z (2013-07-04 18:26), всего редактировалось 1 раз

28-11-2019 20:33  

Отключить всю рекламу на сайте

04-07-2013 15:13 За канделябрами Скачать торрент  

развели тут гомосятину pb.wtf



04-07-2013 15:49 За канделябрами Скачать торрент  

boom300 писал(а):

развели тут гомосятину

Не говори,неужто интересно про эту хрень смотреть,гобатая гора 2 pb.wtf



04-07-2013 16:03 За канделябрами Скачать торрент  

ПедиГам нет!!!pb.wtf



04-07-2013 17:03 За канделябрами Скачать торрент  

k1z писал(а):

Аудио#1: MP3 , 192 Kb/s (2 ch), 48 kHz

В МИ указано AC3 правим.pb.wtf



04-07-2013 18:18 За канделябрами Скачать торрент  

В последнее время фильмов про педиков и лесбиянок становится всё больше. Видимо план гомосексуализации населения идет с самого верха и набирает обороты.pb.wtf



04-07-2013 23:13 За канделябрами Скачать торрент  

Мета деймона нежно называют попка и да он целуетса с Майклом Дугласом и пялит его)pb.wtf



04-07-2013 23:16 За канделябрами Скачать торрент  

я не гомик но мне инитресно было смотреть на двоих мужыков нормальной ориентацыи которые очь талантливо изображают гомиков темболие без всяких комплексов с их стороны , вот где актерская игра-просто отлично , а кому нравитса фильмы форсаж 6 итд проходите мимо!pb.wtf



05-07-2013 03:23 За канделябрами Скачать торрент  

Если ненормальный насилует и ест детей, то потом фильм про него снимается в жанре ужасов.
Здесь тоже ненормальность поведения - гомосятина. А имеем: Жанр: драма, мелодрама, биография.
Как мило, как мило. Гомосятину тоже надо подписывать, как фильм ужасов. Или чем-то в попу это не ужасно?))

Качаю только из-за: Байопик о скандально известном пианистеpb.wtf



    Дорогой пользователь! Огромная просьба, поблагодарите релизера, оцените раздачу и оставьте свои комментарий, если Вы скачали За канделябрами через торрент бесплатно! Внесите свою лепту в развитие PiratBit!
    Комментировать посты могут только пользователи прошедшие не сложную регистрацию
    Показать сообщения:    

    За канделябрами через торрент
    Скачать бесплатно За канделябрами
    За канделябрами скачать торрент
    За канделябрами смотреть онлайн
    Cкачать фильм За канделябрами бесплатно
    За канделябрами скачать торрент в хорошем качестве
    За канделябрами смотреть онлайн бесплатно в хорошем качестве


    Вы не можете начинать темы
    Вы не можете отвечать на сообщения
    Вы не можете редактировать свои сообщения
    Вы не можете удалять свои сообщения
    Вы не можете голосовать в опросах
    Вы не можете прикреплять файлы к сообщениям
    Вы можете скачивать файлы