1 сезон

1 сезон

iTunes

1

КиноПоиск HD

Кинопоиск HD

iTunes

13

1 сезон

RePack

30

Новинка

ВАЖНО

ИГРА 18+

pack

RePack

MK11
pack

Легкие деньги

RePack

jed

RePack

fifa19

RePack

RDR2

RePack

NEED FOR SPEED™ PAYBACK

4 сезон

9 сезон

Бесстыжие 9 сезон

Все сериалы

все сериалы на PB.wtf

RePack

FAR CRY 5
  
Magnet ссылка

Афера / Confidence (Джеймс Фоули) [2003, Триллер, Kриминал, WEB-DLRip] [DUB] pb.wtf

Афера через торрент pb.wtf

Размер: 1.46 GB | Добавлен: 7 лет 9 мес. назад | Торрент скачан:282 раза
Скачать  

04-07-2013 17:45 Афера Скачать торрент  

Афера / Confidence
Год выхода: 2003
Жанр: Триллер, Kриминал
Страна: США, Канада, Германия, Cinerenta Medienbeteiligungs KG, Cinewhite Productions
Продолжительность: 01:37:19
Перевод: Профессиональный (дублированный)

Режиссер: Джеймс Фоули

В ролях: Эдвард Бёрнс, Рейчел Вайс, Энди Гарсиа, Дастин Хоффман, Пол Джаматти, Донал Лог, Луис Гузман, Брайан Ван Холт, Фрэнки Джи, Моррис Честнат, Роберт Форстер, Эйприл ОБрайен, Джей Джанноне, Мелисса Лоунер, Николь Мари Ленц, Элль Александр, Луис Ломбарди, Лиленд Орсер, Джон Кэрролл Линч, Элисия Скай, Роберт Пайн

Описание:
Джейк Вига хитроумный и обаятельный мошенник. Последняя афера Джейка привела к тому, что его дорожки пересеклись с мафией при помощи своей команды он лишил нескольких тысяч долларов Лайонела Долби, счетовода эксцентричного мафиозного босса Уинстона Кинга по прозвищу «Король». Мафия шутить не любит, а любит выбивать долги из тех, кто пытается ее надуть. Чтобы сохранить жизнь и расквитаться с долгами, Джейку приходится устроить новую, еще более изощренную аферу сложнейшую схему, в которой требуется «творческий подход к бухгалтерии». Неожиданные помехи появляются одна за другой: палки в колеса Джейку вставляют его старый враг, агент ФБР Гюнтер Бутан, Трэвис, правая рука «Короля» и хитроумная блондинка-карманщица Лили на которую Джейк успел положить глаз..



Качество: WEB-DLRip
Формат: AVI
Видео кодек: XviD
Аудио кодек: AC3
Видео: 720x304 (2.37:1), 23.976 fps, XviD build 73 ~1753 kbps avg, 0.33 bit/pixel
Аудио: 48 kHz, AC3 Dolby Digital, 3/2 (L,C,R,l,r) + LFE ch, ~384.00 kbps avg
Общее
Полное имя : Confidence.2003.WEB-DLRip.Dub.avi
Формат : AVI
Формат/Информация : Audio Video Interleave
Размер файла : 1,46 Гбайт
Продолжительность : 1 ч. 37 м.
Общий поток : 2147 Кбит/сек
Программа кодирования : VirtualDubMod 1.5.10.3 |(build 2550/release)
Библиотека кодирования : VirtualDubMod build 2550/release

Видео
Идентификатор : 0
Формат : MPEG-4 Visual
Профиль формата : Advanced Simple@L5
Параметр BVOP формата : 1
Параметр QPel формата : Нет
Параметр GMC формата : Без точки перехода
Параметр матрицы формата : Выборочная
Идентификатор кодека : XVID
Идентификатор кодека/Подсказка : XviD
Продолжительность : 1 ч. 37 м.
Битрейт : 1754 Кбит/сек
Ширина : 720 пикс.
Высота : 304 пикс.
Соотношение сторон : 2,35:1
Частота кадров : 23,976 кадр/сек
Цветовое пространство : YUV
Подвыборка цветности : 4:2:0
Битовая глубина : 8 бит
Тип развёртки : Прогрессивная
Метод сжатия : С потерями
Бит/(Пиксели*Кадры) : 0.334
Размер потока : 1,19 Гбайт (82%)
Библиотека кодирования : XviD 73

Аудио
Идентификатор : 1
Формат : AC-3
Формат/Информация : Audio Coding 3
Расширение режима : CM (complete main)
Идентификатор кодека : 2000
Продолжительность : 1 ч. 37 м.
Вид битрейта : Постоянный
Битрейт : 384 Кбит/сек
Канал(ы) : 6 канала(ов)
Расположение каналов : Front: L C R, Side: L R, LFE
Частота : 48,0 КГц
Битовая глубина : 16 бит
Метод сжатия : С потерями
Размер потока : 267 Мбайт (18%)
Выравнивание : Разделение по промежуткам
Продолжительность промежутка : 42 мс. (1,00 видеокадр)
Время предзагрузки промежутка : 500 ms
Релиз от: Leon-masl
pb.wtf



Скачать Афера через торрент http://s018.radikal.ru/i500/1306/63/c914f48758e7.png Скачать фильм Афера через торрент бесплантно в хорошем качестве Описание: Джейк Вига хитроумный и обаятельный мошенник. Последняя афера Джейка привела к тому, что его дорожки пересеклись с мафией при ... 9.8 10 12
Info! Золотая раздача, скачанное не засчитывается.
Торрент: Зарегистрирован [2013-07-04 17:45] · скачан: 282 раз
Статус: √ проверено
Размер: 1.46 GB
Как cкачать? Как скачать Афера через торрент | UTorrent

% Раздел Тема Автор DL S | L
Фильмы 2001-2005 [ 1.88 GB ] Афера / Confidence [2003 DVDRip] smaster Скачать
1 | 0

28-11-2019 20:33  

Отключить всю рекламу на сайте

    Дорогой пользователь! Огромная просьба, поблагодарите релизера, оцените раздачу и оставьте свои комментарий, если Вы скачали Афера через торрент бесплатно! Внесите свою лепту в развитие PiratBit!
    Комментировать посты могут только пользователи прошедшие не сложную регистрацию
    Показать сообщения:    

    Афера через торрент
    Скачать бесплатно Афера
    Афера скачать торрент
    Афера смотреть онлайн
    Cкачать фильм Афера бесплатно
    Афера скачать торрент в хорошем качестве
    Афера смотреть онлайн бесплатно в хорошем качестве


    Вы не можете начинать темы
    Вы не можете отвечать на сообщения
    Вы не можете редактировать свои сообщения
    Вы не можете удалять свои сообщения
    Вы не можете голосовать в опросах
    Вы не можете прикреплять файлы к сообщениям
    Вы можете скачивать файлы