MEGA SALE -50% FORZA HORIZON 4 ULTIMATE+ВСЕ DLC+ОНЛАЙН всего за 599р. 299 руб. (супер цена). Внимание количество ограничено!!!

iTunes

1+1

iTunes

мы

iTunes

1

iTunes

Чернобыль

iTunes

Ральф против интернета

Лицензия

ПШазам

Лицензия

Игра престолов

Лицензия

30
pack

ВАЖНО

!!Акция!!

Alien_RageХит недели

RePack

Resident Evil 21

ИГРА 18+

pack

RePack

Metro:Exodus

!!Акция!!

Alien_Rage

RePack

fifa19

RePack

Assassins Creed: Odyssey

RePack

NEED FOR SPEED™ PAYBACK

3 сезон

9 сезон

Бесстыжие 9 сезон

Все сериалы

все сериалы на PB.wtf

RePack

FAR CRY 5
Ребята, катастрофически не хватает 7730р. для оплаты серверов за ИЮЛЬ (всвязи с блокировками трафик упал в 3 раза), 1-2р., выручайте.
  

Невидимая сторона / The Blind Side (Джон Ли Хэнкок / John Lee Hancock) [2009 г., США, драма, спорт, HDRip-AVC] MVO pb.wtf

Невидимая сторона через торрент pb.wtf

Раздают: 2 [ 0 KB/s ]
Размер: 1.45 GB | Добавлен: 6 лет 1 мес. назад | Торрент скачан:980 раз
Скачать  

06-07-2013 05:02 Невидимая сторона Скачать торрент  

Невидимая сторона / The Blind Side

«Based on the extraordinary true story»
Год выпуска: 2009
Страна: США
Жанр: драма, спорт
Продолжительность: 02:08:33
Перевод: Профессиональный (многоголосый, закадровый)
Русские субтитры: нет

Режиссер: Джон Ли Хэнкок / John Lee Hancock

В ролях: Сандра Баллок, Тим МакГроу, Куинтон Аарон, Джей Хед, Лили Коллинз, Рэй МакКиннон, Ким Диккенс, Адриан Ленокс, Кэти Бейтс, Катрин Дайер

Описание: Реальная история игрока в американский футбол команды Baltimore Ravens Майкла Оэра. Оставшийся без крова молодой афроамериканец взят под опеку зажиточной семьёй. Жизнь в новом окружении полностью меняет судьбу замкнутого подростка, помогает реализовать свой потенциал. Поступив в университет штата Миссисипи, он играет в студенческой команде и познаёт скрытую сторону спортивной игры, учится стратегии и тактическому анализу. Знание того, что в игре зачастую именно мозг побеждает мускулы, вскоре поможет попасть Майклу в профессиональную лигу.

Качество: HDRip-AVC
Формат: MKV
Видео кодек: H264
Аудио кодек: AC3
Видео: 832x464 (16:9), 23.976 fps, H264, 1 424 Kbps, 0.154 bit/pixel
Аудио: 48 kHz, AC3 Dolby Digital, 2/0 (L,R) ch, ~192.00 kbps avg
Раздача от:
D:The.Blind.Side.2009.HDRip-AVC_by_dexter_lex.mkv
General
Unique ID : 239818977994696817076193455001951962831 (0xB46B74811F0660B08D868F8A95AE86CF)
Complete name : D:The.Blind.Side.2009.HDRip-AVC_by_dexter_lex.mkv
Format : Matroska
Format version : Version 2
File size : 1.45 GiB
Duration : 2h 8mn
Overall bit rate : 1 617 Kbps
Encoded date : UTC 2013-07-05 23:18:44
Writing application : mkvmerge v6.1.0 ('Old Devil') built on Mar 4 2013 09:10:42
Writing library : libebml v1.3.0 + libmatroska v1.4.0
Video #1
ID : 1
Format : AVC
Format/Info : Advanced Video Codec
Format profile : High@L4.1
Format settings, CABAC : Yes
Format settings, ReFrames : 4 frames
Codec ID : V_MPEG4/ISO/AVC
Duration : 2h 8mn
Bit rate : 1 424 Kbps
Width : 832 pixels
Height : 464 pixels
Display aspect ratio : 16:9
Frame rate : 23.976 fps
Color space : YUV
Chroma subsampling : 4:2:0
Bit depth : 8 bits
Scan type : Progressive
Bits/(Pixel*Frame) : 0.154
Stream size : 1.25 GiB (86%)
Writing library : x264 core 130 r2273 b3065e6
Encoding settings : cabac=1 / ref=3 / deblock=1:0:0 / analyse=0x3:0x113 / me=hex / subme=7 / psy=1 / psy_rd=1.00:0.10 / mixed_ref=1 / me_range=16 / chroma_me=1 / trellis=1 / 8x8dct=1 / cqm=0 / deadzone=21,11 / fast_pskip=1 / chroma_qp_offset=-3 / threads=6 / lookahead_threads=1 / sliced_threads=0 / nr=0 / decimate=1 / interlaced=0 / bluray_compat=0 / constrained_intra=0 / bframes=3 / b_pyramid=2 / b_adapt=1 / b_bias=0 / direct=1 / weightb=1 / open_gop=0 / weightp=2 / keyint=240 / keyint_min=23 / scenecut=40 / intra_refresh=0 / rc_lookahead=40 / rc=2pass / mbtree=1 / bitrate=1424 / ratetol=1.0 / qcomp=0.60 / qpmin=0 / qpmax=69 / qpstep=4 / cplxblur=20.0 / qblur=0.5 / ip_ratio=1.40 / aq=1:1.00
Default : Yes
Forced : No
Audio #2
ID : 2
Format : AC-3
Format/Info : Audio Coding 3
Mode extension : CM (complete main)
Codec ID : A_AC3
Duration : 2h 8mn
Bit rate mode : Constant
Bit rate : 192 Kbps
Channel(s) : 2 channels
Channel positions : Front: L R
Sampling rate : 48.0 KHz
Bit depth : 16 bits
Compression mode : Lossy
Stream size : 177 MiB (12%)
Default : Yes
Forced : No
pb.wtf



Скачать Невидимая сторона через торрент http://i46.fastpic.ru/big/2013/0706/a8/7129f72cf06de76908e6ced54da2a8a8.jpg Скачать фильм Невидимая сторона через торрент бесплантно в хорошем качестве Описание: Реальная история игрока в американский футбол команды Baltimore Ravens Майкла Оэра. Оставшийся без крова молодой афроамериканец ... 10 10 16
Info! Золотая раздача, скачанное не засчитывается.
Торрент: Зарегистрирован [2013-07-06 05:02] · скачан: 980 раз
Статус: √ проверено
Размер: 1.45 GB
Как cкачать? Как скачать Невидимая сторона через торрент | qTorrent

% Раздел Тема Автор DL S | L
Фильмы [HD 720p, 1080p] (Хороший звук DUB, MVO) [ 5.75 GB ] Невидимая сторона / The Blind Side [2009 биография BDRip 720p] MVO + Original + Sub _denis_100 Скачать
1 | 0
Фильмы 2009 [ 2.18 GB ] Невидимая сторона / The Blind Side [2009 биография HDRip-AVC] MVO / от R.G. nICE Films Demonessa Скачать
1 | 1


>> Регистрируемся здесь <<






Отзывы и комментарии о схеме читаем и пишем здесь: ---> Отзывы и комментарии о схеме

Новые благодарочки в телеграм довольных пользователей:
скриншот   скриншот   скриншот   скриншот   скриншот
    Дорогой пользователь! Огромная просьба, поблагодарите релизера, оцените раздачу и оставьте свои комментарий, если Вы скачали Невидимая сторона через торрент бесплатно! Внесите свою лепту в развитие PiratBit!
    Комментировать посты могут только пользователи прошедшие не сложную регистрацию
    Показать сообщения:    

    Невидимая сторона через торрент
    Скачать бесплатно Невидимая сторона
    Невидимая сторона скачать торрент
    Невидимая сторона смотреть онлайн
    Cкачать фильм Невидимая сторона бесплатно
    Невидимая сторона скачать торрент в хорошем качестве
    Невидимая сторона смотреть онлайн бесплатно в хорошем качестве


    Вы не можете начинать темы
    Вы не можете отвечать на сообщения
    Вы не можете редактировать свои сообщения
    Вы не можете удалять свои сообщения
    Вы не можете голосовать в опросах
    Вы не можете прикреплять файлы к сообщениям
    Вы можете скачивать файлы