Ссылка на приватное зеркало нашего сайта всего за 1$. Внимание количество ограничено!!!

2 сезон

iTunes

1 сезон

1

iTunes

iTunes

iTunes

1 сезон

RePack

30

ИГРА 18+

pack

ВАЖНО

!!Акция!!

Alien_RageХит недели

RePack

MK11
pack

Забери бонус

RePack

jed

!!Акция!!

Alien_Rage

RePack

fifa19

RePack

Assassins Creed: Odyssey

RePack

NEED FOR SPEED™ PAYBACK

4 сезон

9 сезон

Бесстыжие 9 сезон

Все сериалы

все сериалы на PB.wtf

RePack

FAR CRY 5
  

Поймай толстуху, если сможешь / Identity Thief (Сет Гордон) [2013 г., комедия, криминал, BDRip 1080p, Дубляж, лицензия] pb.wtf

Поймай толстуху, если сможешь через торрент pb.wtf

Размер: 12.05 GB | Добавлен: 7 лет 3 мес. назад | Торрент скачан:218 раз
Скачать  

06-07-2013 11:45 Поймай толстуху, если сможешь Скачать торрент  

Поймай толстуху если сможешь / Identity Thief
Год выпуска: 2013
Страна: США
Жанр: комедия, криминал,
Продолжительность: 111 мин. / 01:51
Перевод: Дубляж, Лицензия
Субтитры: Русский (Full, Forced), Английский, Испанский, Португальский

Режиссер: Сет Гордон
Продюссер: Памела Эбди, Джейсон Бейтман, Скотт Стубер
Сценарий: Крэйг Мазин, Джерри Итен

Бюджет: $35 000 000
Премьера в мире: 7 февраля 2013

IMDB 5.60 (33 747)


В ролях: Джейсон Бейтман, Мелисса МакКарти, Аманда Пит, Роберт Патрик, Генезис Родригез, Ти-Ай, Джон Фавро, Моррис Честнат, Джон Чо, Эрик Стоунстрит, Анастасия Лапина, Даниил Эльдаров, Михаил Георгиу,

Описание: История о человеке, у которого украли документы, удостоверяющие его личность, и к чему это привело.

Качество: BDRip 1080p
Формат: MKV
Видео кодек: H.264
Аудио кодек: DTS
Видео:MPEG-4 AVC, ~ 13,2 Мбит/сек, 1920 x 816 (2.353) at 23.976 fps : 0.351 Bits/Pixel
Аудио#1: DTS 768 Кбит/сек (6ch), 48,0 КГц, 24 бит [Русский, Дубляж-Blu-ray CEE]
Аудио#2: DTS 1509 Кбит/сек (6ch), 48,0 КГц, 24 бит [Английский]

Уникальный идентификатор : 178942776219787882757146635627157334321 (0x869F2006E76F7EADA4FE61E8DD152931)
Полное имя : H:Поймай толстуху, если сможешь Identity Thief (2013) BDRip 720-1080pPojmaj.tolstuhu.esli.smozhesh(Teatralnaja.versija).2013.D.BDRip.1080p.NNM-CLUB.mkv
Формат : Matroska
Версия формата : Version 2
Размер файла : 12,0 Гбайт
Продолжительность : 1 ч. 51 м.
Общий поток : 15,5 Мбит/сек
Название фильма : Pojmaj.tolstuhu.esli.smozhesh(Teatralnaja.versija).2013.D.BDRip.1080p.NNM-CLUB.GIU
Дата кодирования : UTC 2013-07-05 20:15:10
Программа кодирования : mkvmerge v2.9.9 ('Tutu') built on Nov 25 2009 21:13:32
Библиотека кодирования : libebml v0.7.9 + libmatroska v0.8.1

Видео
Идентификатор : 1
Формат : AVC
Формат/Информация : Advanced Video Codec
Профиль формата : High@L4.1
Параметр CABAC формата : Да
Параметр ReFrames формата : 5 кадров
Идентификатор кодека : V_MPEG4/ISO/AVC
Продолжительность : 1 ч. 51 м.
Битрейт : 13,2 Мбит/сек
Ширина : 1920 пикселей
Высота : 816 пикселей
Соотношение сторон : 2,35:1
Режим частоты кадров : Постоянный
Частота кадров : 23,976 кадра/сек
Цветовое пространство : YUV
Субдискретизация насыщенности : 4:2:0
Битовая глубина : 8 бит
Тип развёртки : Прогрессивная
Бит/(Пиксели*Кадры) : 0.351
Размер потока : 10,0 Гбайт (83%)
Заголовок : -=Rip by GIU=-
Библиотека кодирования : x264 core 133 r2334 a3ac64b
Настройки программы : cabac=1 / ref=5 / deblock=1:-3:-3 / analyse=0x3:0x3 / me=umh / subme=11 / psy=1 / psy_rd=1.00:0.00 / mixed_ref=0 / me_range=32 / chroma_me=1 / trellis=2 / 8x8dct=1 / cqm=0 / deadzone=21,11 / fast_pskip=1 / chroma_qp_offset=-2 / threads=12 / lookahead_threads=2 / sliced_threads=0 / nr=0 / decimate=1 / interlaced=0 / bluray_compat=0 / constrained_intra=0 / bframes=8 / b_pyramid=2 / b_adapt=2 / b_bias=0 / direct=3 / weightb=1 / open_gop=0 / weightp=1 / keyint=240 / keyint_min=23 / scenecut=40 / intra_refresh=0 / rc_lookahead=0 / rc=2pass / mbtree=0 / bitrate=13200 / ratetol=1.0 / qcomp=0.80 / qpmin=5 / qpmax=51 / qpstep=4 / cplxblur=20.0 / qblur=0.5 / vbv_maxrate=62500 / vbv_bufsize=78125 / nal_hrd=none / ip_ratio=1.40 / pb_ratio=1.30 / aq=1:1.00
Язык : English
Default : Нет
Forced : Нет

Аудио #1
Идентификатор : 2
Формат : DTS
Формат/Информация : Digital Theater Systems
Режим : 16
Параметр Endianness формата : Big
Идентификатор кодека : A_DTS
Продолжительность : 1 ч. 51 м.
Вид битрейта : Постоянный
Битрейт : 768 Кбит/сек
Каналы : 6 каналов
Расположение каналов : Front: L C R, Side: L R, LFE
Частота : 48,0 КГц
Битовая глубина : 24 бит
Метод сжатия : С потерями
Размер потока : 612 Мбайт (5%)
Заголовок : DTS.768.Kbps (6ch) Russian
Язык : Russian
Default : Да
Forced : Нет

Аудио #2
Идентификатор : 3
Формат : DTS
Формат/Информация : Digital Theater Systems
Режим : 16
Параметр Endianness формата : Big
Идентификатор кодека : A_DTS
Продолжительность : 1 ч. 51 м.
Вид битрейта : Постоянный
Битрейт : 1509 Кбит/сек
Каналы : 6 каналов
Расположение каналов : Front: L C R, Side: L R, LFE
Частота : 48,0 КГц
Битовая глубина : 24 бит
Метод сжатия : С потерями
Размер потока : 1,17 Гбайт (10%)
Заголовок : DTS.1509.Kbps (6ch) English
Язык : English
Default : Нет
Forced : Нет

Текст #1
Идентификатор : 4
Формат : UTF-8
Идентификатор кодека : S_TEXT/UTF8
Идентификатор кодека/Информация : UTF-8 Plain Text
Заголовок : Russian (Full)
Язык : Russian
Default : Нет
Forced : Нет

Текст #2
Идентификатор : 5
Формат : UTF-8
Идентификатор кодека : S_TEXT/UTF8
Идентификатор кодека/Информация : UTF-8 Plain Text
Заголовок : Russian (Forced)
Язык : Russian
Default : Нет
Forced : Нет

Текст #3
Идентификатор : 6
Формат : UTF-8
Идентификатор кодека : S_TEXT/UTF8
Идентификатор кодека/Информация : UTF-8 Plain Text
Заголовок : English (SDH)
Язык : English
Default : Нет
Forced : Нет

Текст #4
Идентификатор : 7
Формат : UTF-8
Идентификатор кодека : S_TEXT/UTF8
Идентификатор кодека/Информация : UTF-8 Plain Text
Заголовок : Spanish (Full)
Язык : Spanish
Default : Нет
Forced : Нет

Текст #5
Идентификатор : 8
Формат : UTF-8
Идентификатор кодека : S_TEXT/UTF8
Идентификатор кодека/Информация : UTF-8 Plain Text
Заголовок : Portuguese (Full - Brazilian)
Язык : Portuguese
Default : Нет
Forced : Нет

Меню
00:00:00.000 : en:Chapter 00
00:06:30.973 : en:Chapter 01
00:11:12.672 : en:Chapter 02
00:15:40.648 : en:Chapter 03
00:24:00.188 : en:Chapter 04
00:27:59.469 : en:Chapter 05
00:34:22.685 : en:Chapter 06
00:40:19.917 : en:Chapter 07
00:44:22.534 : en:Chapter 08
00:49:59.413 : en:Chapter 09
00:54:34.813 : en:Chapter 10
01:01:07.455 : en:Chapter 11
01:05:34.013 : en:Chapter 12
01:09:20.114 : en:Chapter 13
01:14:46.773 : en:Chapter 14
01:21:15.412 : en:Chapter 15
01:28:15.999 : en:Chapter 16
01:34:34.585 : en:Chapter 17
01:40:49.835 : en:Chapter 18
01:47:19.015 : en:Chapter 1


Поймай толстуху, если сможешь скачать торрент


pb.wtf



Скачать Поймай толстуху, если сможешь через торрент http://img22.imageshack.us/img22/9648/qq6p.jpg Скачать фильм Поймай толстуху, если сможешь через торрент бесплантно в хорошем качестве Описание: История о человеке, у которого украли документы, удостоверяющие его личность, и к чему это ... 9.9 10 9
Info! Золотая раздача, скачанное не засчитывается.
Торрент: Зарегистрирован [2013-07-06 11:45] · скачан: 218 раз
Статус: √ проверено
Размер: 12.05 GB
Как cкачать? Как скачать Поймай толстуху, если сможешь через торрент | qTorrent

% Раздел Тема Автор DL S | L
Фильмы с авторской озвучкой [ 2.91 GB ] Поймай толстуху если сможешь / Identity Thief [2013 BDRip-AVC] [Расширенная версия] AVO potroks Скачать
1 | 0
Фильмы (DVD фильмы) [ 7.17 GB ] Поймай толстуху если сможешь / Identity Thief [2013 DVD9] R5 voovaz Скачать
1 | 0
Фильмы [HD 720p, 1080p] (Хороший звук DUB, MVO) [ 5.82 GB ] Поймай толстуху если сможешь / Identity Thief [2013 BDRip 720p лицензия] Ke$h@ Скачать
1 | 0
Фильмы 2013 [DVDrip, WEB-DLRip, HDrip] [ 2.05 GB ] Поймай толстуху если сможешь / Identity Thief [2013 HDRip лицензия]2.05GB coc900 Скачать
1 | 0
Фильмы 2013 [DVDrip, WEB-DLRip, HDrip] [ 1.46 GB ] Поймай толстуху если сможешь / Identity Thief [2013 HDRip лицензия] Seedtank Скачать
1 | 0
Фильмы 2013 [DVDrip, WEB-DLRip, HDrip] [ 1.45 GB ] Поймай толстуху если сможешь / Identity Thief [2013 BDRip-AVC лицензия] МАКС1 Скачать
1 | 0
Фильмы (Blu-ray, BD-Remux, HDDVD) [ 37.87 GB ] Поймай толстуху если сможешь / Identity Thief [2013 Blu-ray CEE лицензия] Pavlin Скачать
1 | 0

28-11-2019 20:33  

Отключить всю рекламу на сайте

06-07-2013 12:48 Поймай толстуху, если сможешь Скачать торрент  

Мелисса МакКарти как вседа на высоте....смотреть ВСЕМ pb.wtf



10-01-2016 13:40 Поймай толстуху, если сможешь Скачать торрент  

раздайте плизpb.wtf



    Дорогой пользователь! Огромная просьба, поблагодарите релизера, оцените раздачу и оставьте свои комментарий, если Вы скачали Поймай толстуху, если сможешь через торрент бесплатно! Внесите свою лепту в развитие PiratBit!
    Комментировать посты могут только пользователи прошедшие не сложную регистрацию
    Показать сообщения:    

    Поймай толстуху, если сможешь через торрент
    Скачать бесплатно Поймай толстуху, если сможешь
    Поймай толстуху, если сможешь скачать торрент
    Поймай толстуху, если сможешь смотреть онлайн
    Cкачать фильм Поймай толстуху, если сможешь бесплатно
    Поймай толстуху, если сможешь скачать торрент в хорошем качестве
    Поймай толстуху, если сможешь смотреть онлайн бесплатно в хорошем качестве


    Вы не можете начинать темы
    Вы не можете отвечать на сообщения
    Вы не можете редактировать свои сообщения
    Вы не можете удалять свои сообщения
    Вы не можете голосовать в опросах
    Вы не можете прикреплять файлы к сообщениям
    Вы можете скачивать файлы