Ссылка на приватное зеркало всего за 1$. Внимание количество ограничено!!!


iTunes

1+1

iTunes

мы

WEB-DL

1

iTunes

Чернобыль

iTunes

Ральф против интернета

Лицензия

ПШазам

Лицензия

Оно 2

WEB-DL

30
pack

Вам бонус

ВАЖНО

!!Акция!!

Alien_RageХит недели

RePack

Resident Evil 21

ИГРА 18+

pack

RePack

jed

!!Акция!!

Alien_Rage

RePack

fifa19

RePack

Assassins Creed: Odyssey

RePack

NEED FOR SPEED™ PAYBACK

4 сезон

9 сезон

Бесстыжие 9 сезон

Все сериалы

все сериалы на PB.wtf

RePack

FAR CRY 5
Ребята, катастрофически не хватает 1900р. для оплаты серверов за Октябрь (всвязи с блокировками трафик упал в 3 раза), 1-2р., выручайте.
  

Ричард: Львиное сердце / Richard: The Lionheart (Стефано Милла) [2013 г., фэнтези, боевик, приключения, DVDRip, VO] pb.wtf

Ричард: Львиное сердце через торрент pb.wtf

Размер: 1.37 GB | Добавлен: 6 лет 5 мес. назад | Торрент скачан:1187 раз
Скачать  

06-07-2013 16:27 Ричард: Львиное сердце Скачать торрент  

Ричард: Львиное сердце / Richard: The Lionheart
Год выпуска: 2013
Страна: США
Жанр: фэнтези, боевик, приключения,
Продолжительность: 01:39
Перевод: Любительский одноголосый

Режиссер: Стефано Милла
Продюссер: Фил Горн, Стефано Милла, Blinov Oleg Adrianovich
Сценарий: Джеро Джильо, Стефано Милла

Премьера в мире: 9 февраля 2013

IMDB


В ролях: Малкольм МакДауэлл, Стюарт Арнольд, Veronica Calilli, Чандлер Манесс, Маурицио Корильяно, Davide Ferricchio, Шэрон Фрайер, Christopher Jones, Alice Lussiana Parente, Бертон Перез,

Описание: Король Генрих II проверяет верность и честь своего сына Ричарда отправив его в тайный замок известный как мученик Найта. Там, принц должен бороться против противников представляющие достоинств рыцаря.

Качество: DVDRip
Формат: AVI
Видео кодек: XviD
Аудио кодек: AC3
Видео: 720x304 (2.37:1), 25 fps, XviD build 50 ~1503 kbps avg, 0.27 bit/pixel
Аудио#1: 48 kHz, AC3 Dolby Digital, 3/2 (L,C,R,l,r) + LFE ch, ~448 kbps
скриншот   скриншот   скриншот  

Общее
Полное имя : D:ТорентыRichard.The.Lionheart.2013.DVDRip.1400MB.avi
Формат : AVI
Формат/Информация : Audio Video Interleave
Размер файла : 1,37 Гбайт
Продолжительность : 1 ч. 39 м.
Общий поток : 1961 Кбит/сек
Программа кодирования : VirtualDubMod 1.5.10.3 | www.virtualdub-fr.org || (build 2550/release)
Библиотека кодирования : VirtualDubMod build 2550/release

Видео
Идентификатор : 0
Формат : MPEG-4 Visual
Профиль формата : Advanced Simple@L5
Параметр BVOP формата : 2
Параметр QPel формата : Нет
Параметр GMC формата : Без точки перехода
Параметр матрицы формата : Default (MPEG)
Идентификатор кодека : XVID
Идентификатор кодека/Подсказка : XviD
Продолжительность : 1 ч. 39 м.
Битрейт : 1504 Кбит/сек
Ширина : 720 пикселей
Высота : 304 пикселя
Соотношение сторон : 2,35:1
Частота кадров : 25,000 кадров/сек
Цветовое пространство : YUV
Субдискретизация насыщенности : 4:2:0
Битовая глубина : 8 бит
Тип развёртки : Прогрессивная
Метод сжатия : С потерями
Бит/(Пиксели*Кадры) : 0.275
Размер потока : 1,05 Гбайт (77%)
Библиотека кодирования : XviD 1.2.1 (UTC 2008-12-04)

Аудио
Идентификатор : 1
Формат : AC-3
Формат/Информация : Audio Coding 3
Расширение режима : CM (complete main)
Параметр Endianness формата : Big
Идентификатор кодека : 2000
Продолжительность : 1 ч. 39 м.
Вид битрейта : Постоянный
Битрейт : 448 Кбит/сек
Каналы : 6 каналов
Расположение каналов : Front: L C R, Side: L R, LFE
Частота : 48,0 КГц
Битовая глубина : 16 бит
Метод сжатия : С потерями
Размер потока : 320 Мбайт (23%)
Выравнивание : Разделение по промежуткам
Продолжительность промежутка : 40 мс. (1,00 видеокадр)
Время предзагрузки промежутка : 500 мс.


Richard: The Lionheart скачать торрент


pb.wtf



Скачать Ричард: Львиное сердце через торрент http://pic.kartinco.top/images/3/ndfsb4y32o.png Скачать фильм Ричард: Львиное сердце через торрент бесплантно в хорошем качестве Описание: Король Генрих II проверяет верность и честь своего сына Ричарда отправив его в тайный замок известный как мученик Найта. Там, ... 9.8 10 40
Info! Золотая раздача, скачанное не засчитывается.
Торрент: Зарегистрирован [2013-07-06 16:27] · скачан: 1 187 раз
Статус: √ проверено
Размер: 1.37 GB
Как cкачать? Как скачать Ричард: Львиное сердце через торрент | qTorrent

28-11-2019 20:33  

Отключить всю рекламу на сайте

06-07-2013 16:36 Ричард: Львиное сердце Скачать торрент  

описание к фильму мутное какоето! sarcasticpb.wtf



06-07-2013 16:40 Ричард: Львиное сердце Скачать торрент  

Надо будет посмотреть)pb.wtf



06-07-2013 19:12 Ричард: Львиное сердце Скачать торрент  

Сюжет и вообще вся эта тема про рыцарей на столько изъезжена, что даже желания смотреть нет) По крайней мере этот фильм...
P/s: Надеюсь никого не затронул до глубины души своим комментарием. Ато бывают тут, особо впечатлительные pb.wtf



06-07-2013 19:27 Ричард: Львиное сердце Скачать торрент  

KIT417 писал(а):

Сюжет и вообще вся эта тема про рыцарей на столько изъезжена, что даже желания смотреть нет) По крайней мере этот фильм...
P/s: Надеюсь никого не затронул до глубины души своим комментарием. Ато бывают тут, особо впечатлительные

Не не затронул... Все верно написал - если фильм гуано не имеющие ни какого отношения к исторической действительности то оно и есть гуано....pb.wtf



06-07-2013 19:39 Ричард: Львиное сердце Скачать торрент  

шляпой попахивает....pb.wtf



06-07-2013 22:53 Ричард: Львиное сердце Скачать торрент  

... кто то по теме отпишиться или будет чушь пороть дальше? Как фильм?pb.wtf



07-07-2013 06:20 Ричард: Львиное сердце Скачать торрент  

Как понять "бороться против противников представляющие достоинств рыцаря" ?pb.wtf



07-07-2013 07:36 Ричард: Львиное сердце Скачать торрент  

Sirezyk писал(а):

Как понять "бороться против противников представляющие достоинств рыцаря" ?

Карать их... Анально pb.wtf



07-07-2013 13:13 Ричард: Львиное сердце Скачать торрент  

FreeFire писал(а):

... кто то по теме отпишиться или будет чушь пороть дальше? Как фильм?

Молодец прям в точку.pb.wtf



07-07-2013 17:27 Ричард: Львиное сердце Скачать торрент  

pb.wtf



08-07-2013 03:37 Ричард: Львиное сердце Скачать торрент  

FreeFire писал(а):

... кто то по теме отпишиться или будет чушь пороть дальше? Как фильм?

Как как??? Да никак!!! Ниочём вот и всё!!! Что тебе ещё сказать??pb.wtf



09-07-2013 14:35 Ричард: Львиное сердце Скачать торрент  

Смотреть не стоитpb.wtf



03-05-2014 06:37 Ричард: Львиное сердце Скачать торрент  

Фильм просто редкостное дерьмо, только зря потраченное время.pb.wtf



    Дорогой пользователь! Огромная просьба, поблагодарите релизера, оцените раздачу и оставьте свои комментарий, если Вы скачали Ричард: Львиное сердце через торрент бесплатно! Внесите свою лепту в развитие PiratBit!
    Комментировать посты могут только пользователи прошедшие не сложную регистрацию
    Показать сообщения:    

    Ричард: Львиное сердце через торрент
    Скачать бесплатно Ричард: Львиное сердце
    Ричард: Львиное сердце скачать торрент
    Ричард: Львиное сердце смотреть онлайн
    Cкачать фильм Ричард: Львиное сердце бесплатно
    Ричард: Львиное сердце скачать торрент в хорошем качестве
    Ричард: Львиное сердце смотреть онлайн бесплатно в хорошем качестве


    Вы не можете начинать темы
    Вы не можете отвечать на сообщения
    Вы не можете редактировать свои сообщения
    Вы не можете удалять свои сообщения
    Вы не можете голосовать в опросах
    Вы не можете прикреплять файлы к сообщениям
    Вы можете скачивать файлы