2 сезон

iTunes

MVO

1

2 сезон

iTunes

iTunes

1 сезон

RePack

30

Ultimate

ВАЖНО

ИГРА 18+

pack

RePack

MK11
pack

Легкие деньги

RePack

jed

RePack

fifa19

RePack

RDR2

RePack

NEED FOR SPEED™ PAYBACK

4 сезон

9 сезон

Бесстыжие 9 сезон

Все сериалы

все сериалы на PB.wtf

RePack

FAR CRY 5

Anonymous, добрый вечер, мы не успеваем собрать деньги на оплату серверов за декабрь и январь, помогите нам пожалуйста в это трудное время. В качестве благодарности мы отключим Вам всю рекламу на сайте (укажите свой ник в строку Ваше имя)!

×
  
Magnet ссылка

42 / 42 (Брайан Хелгеленд) [2013 г., Драма, биография, спорт, BDRip-AVC, Профессиональный (многоголосый закадровый)] pb.wtf

42 через торрент pb.wtf

Размер: 2.68 GB | Добавлен: 7 лет 6 мес. назад | Торрент скачан:462 раза
Скачать  

06-07-2013 17:44 42 Скачать торрент  

42 / 42
  • Год выпуска: 2013
  • Страна: США
  • Жанр: Драма, биография, спорт
  • Продолжительность: 02:08:14
  • Перевод: Профессиональный (многоголосый закадровый)
  • Субтитры: Английские, русские(SDH), русские (iTunes)

  • Режиссер: Брайан Хелгеленд
  • Продюссер: Томас Тулл, Джейсон Кларк, Дик Кук
  • Сценарий: Брайан Хелгеленд

  • Бюджет: $40 000 000





  • В ролях: Харрисон Форд, Чэдвик Боузман, Алан Тьюдик, Кристофер Мелони, Джон К. МакГинли, Лукас Блэк, Райан Мерриман, Т.Р. Найт, Бретт Каллен

  • Описание: Фильм посвящен тому, как Брэнч Рики и Джеки Робинсон уничтожили сегрегацию в бейсболе в 1947 году.


  • Качество: BDRip-AVC
  • Формат: MKV
  • Видео кодек: H.264
  • Аудио кодек: AC3
  • Видео: H.264, 1104x460 (2,40:1), 23,976 fps, 2353 Кbps, 0.193 bit/pixel
  • Аудио#1: 48 kHz, AC3 Dolby Digital, 2/0 (L,C) ch, 192.00 kbps | RUS
  • Аудио#2: 48 kHz, AC3 Dolby Digital, 3/2 (L,C,R,l,r) + LFE ch, 448.00 kbps | ENG









    D:42.2013.BDRip.
    General
    Unique ID : 216412001966489132290339635866204122001 (0xA2CF6F7C5A03829C897E31CDF8DC2B91)
    Complete name : D:42.2013.BDRip.
    Format : Matroska
    Format version : Version 4 / Version 2
    File size : 2.68 GiB
    Duration : 2h 8mn
    Overall bit rate : 2 995 Kbps
    Movie name :
    Encoded date : UTC 2013-07-04 14:10:08
    Writing application : mkvmerge v5.9.0 ('On The Loose') built on Dec 15 2012 16:39:58
    Writing library : libebml v1.3.0 + libmatroska v1.4.0
    Video #1
    ID : 1
    Format : AVC
    Format/Info : Advanced Video Codec
    Format profile : High@L4.1
    Format settings, CABAC : Yes
    Format settings, ReFrames : 14 frames
    Codec ID : V_MPEG4/ISO/AVC
    Duration : 2h 8mn
    Bit rate : 2 353 Kbps
    Width : 1 104 pixels
    Height : 460 pixels
    Display aspect ratio : 2.40:1
    Frame rate : 23.976 fps
    Color space : YUV
    Chroma subsampling : 4:2:0
    Bit depth : 8 bits
    Scan type : Progressive
    Bits/(Pixel*Frame) : 0.193
    Stream size : 2.06 GiB (77%)
    Title : 42
    Writing library : x264 core 125 r2208 d9d2288
    Encoding settings : cabac=1 / ref=14 / deblock=1:-2:-1 / analyse=0x3:0x133 / me=umh / subme=11 / psy=1 / psy_rd=1.08:0.02 / mixed_ref=1 / me_range=32 / chroma_me=1 / trellis=2 / 8x8dct=1 / cqm=0 / deadzone=21,11 / fast_pskip=0 / chroma_qp_offset=-3 / threads=9 / lookahead_threads=1 / sliced_threads=0 / nr=0 / decimate=1 / interlaced=0 / bluray_compat=0 / constrained_intra=0 / bframes=15 / b_pyramid=2 / b_adapt=2 / b_bias=0 / direct=3 / weightb=1 / open_gop=0 / weightp=2 / keyint=240 / keyint_min=23 / scenecut=40 / intra_refresh=0 / rc_lookahead=120 / rc=2pass / mbtree=1 / bitrate=2353 / ratetol=1.0 / qcomp=0.70 / qpmin=0 / qpmax=69 / qpstep=4 / cplxblur=20.0 / qblur=0.5 / vbv_maxrate=20000 / vbv_bufsize=25000 / nal_hrd=none / ip_ratio=1.35 / aq=1:0.70
    Language : English
    Default : Yes
    Forced : No
    Audio #2
    ID : 2
    Format : AC-3
    Format/Info : Audio Coding 3
    Mode extension : CM (complete main)
    Format settings, Endianness : Big
    Codec ID : A_AC3
    Duration : 2h 8mn
    Bit rate mode : Constant
    Bit rate : 192 Kbps
    Channel(s) : 2 channels
    Channel positions : Front: L R
    Sampling rate : 48.0 KHz
    Bit depth : 16 bits
    Compression mode : Lossy
    Stream size : 176 MiB (6%)
    Title : MVO | DD 2.0 @ 192 kbps
    Language : Russian
    Default : Yes
    Forced : Yes
    Audio #3
    ID : 3
    Format : AC-3
    Format/Info : Audio Coding 3
    Mode extension : CM (complete main)
    Format settings, Endianness : Big
    Codec ID : A_AC3
    Duration : 2h 8mn
    Bit rate mode : Constant
    Bit rate : 448 Kbps
    Channel(s) : 6 channels
    Channel positions : Front: L C R, Side: L R, LFE
    Sampling rate : 48.0 KHz
    Bit depth : 16 bits
    Compression mode : Lossy
    Stream size : 411 MiB (15%)
    Title : Original | DD 5.1 @ 448 kbps
    Language : English
    Default : No
    Forced : No
    Text #4
    ID : 4
    Format : UTF-8
    Codec ID : S_TEXT/UTF8
    Codec ID/Info : UTF-8 Plain Text
    Language : English
    Default : No
    Forced : No
    Text #5
    ID : 5
    Format : UTF-8
    Codec ID : S_TEXT/UTF8
    Codec ID/Info : UTF-8 Plain Text
    Title : SDH
    Language : Russian
    Default : No
    Forced : No
    Text #6
    ID : 6
    Format : UTF-8
    Codec ID : S_TEXT/UTF8
    Codec ID/Info : UTF-8 Plain Text
    Title : iTunes
    Language : Russian
    Default : No

    Forced : No


    42 скачать торрент


    pb.wtf



  • Скачать 42 через торрент http://pic.kartinco.top/images/3/f9dzfsh7w5.jpg Скачать фильм 42 через торрент бесплантно в хорошем качестве Описание: Фильм посвящен тому, как Брэнч Рики и Джеки Робинсон уничтожили сегрегацию в бейсболе в 1947 ... 9.9 10 12
    Info! Золотая раздача, скачанное не засчитывается.
    Торрент: Зарегистрирован [2013-07-06 17:44] · скачан: 462 раз
    Статус: √ проверено
    Размер: 2.68 GB
    Как cкачать? Как скачать 42 через торрент | UTorrent

    % Раздел Тема Автор DL S | L
    Action FPS (1st Person) [ 11.3 GB ] Half-Life 2 Fakefactory cinematic mod v10.42 & Adult Pimper v3.02 with Rebels Addon [RePack Русс / Англ] =Чувак= Скачать
    1 | 0
    Action FPS (1st Person) [ 1.91 GB ] Quake 4 v1.42 + GTX Mod v1.05 [RepackRU/ RU n/a] .::AlexRambou24::. Скачать
    2 | 0
    Архив (Программы для работы с мультимедиа и 3D) [ 414 MB ] Sony Vegas PRO 11.0 Build 424 2011 [Multi / Rus] Ruvest Скачать
    1 | 0
    Мультсериалы [ 6.71 GB ] Бен 10: Инопланетная сверхсила / Ben 10: Ultimate Alien / Сезон: 2 из 2/Серии: 1-26 из 42 [2010-2011 мультфильм WEB-DL] Anonymous Скачать
    1 | 0
    Программные комплекты [ 2.72 GB ] WPI DVD 15.05.2012 By Andreyonohov & Leha342 2012 [Rus] Ruvest Скачать
    1 | 0
    Action FPS (1st Person) [ 1.8 GB ] Battlefield 2142 Deluxe Edition {The Abyss ONLINE Version} [Repack RU ЕА] MITHTIX Скачать
    1 | 0
    Работа со звуком [ 7.79 GB ] Propellerhead Reason 5 Build 1 428 [English] Aleksei2507 Скачать
    1 | 0

    28-11-2019 20:33  

    Отключить всю рекламу на сайте

    07-07-2013 05:41 42 Скачать торрент  

    фильм просто класс, не подскажете когда будет релиз на Blu-Ray ? хочется какую нить мквшку сего чуда гигов так на 10 размеромpb.wtf



    07-07-2013 13:10 42 Скачать торрент  

    спасибо больше, люблю подобные жанры фильмов... pb.wtf



      Дорогой пользователь! Огромная просьба, поблагодарите релизера, оцените раздачу и оставьте свои комментарий, если Вы скачали 42 через торрент бесплатно! Внесите свою лепту в развитие PiratBit!
      Комментировать посты могут только пользователи прошедшие не сложную регистрацию
      Показать сообщения:    

      42 через торрент
      Скачать бесплатно 42
      42 скачать торрент
      42 смотреть онлайн
      Cкачать фильм 42 бесплатно
      42 скачать торрент в хорошем качестве
      42 смотреть онлайн бесплатно в хорошем качестве


      Вы не можете начинать темы
      Вы не можете отвечать на сообщения
      Вы не можете редактировать свои сообщения
      Вы не можете удалять свои сообщения
      Вы не можете голосовать в опросах
      Вы не можете прикреплять файлы к сообщениям
      Вы можете скачивать файлы