MEGA SALE -50% FORZA HORIZON 4 ULTIMATE+ВСЕ DLC+ОНЛАЙН всего за 599р. 299 руб. (супер цена). Внимание количество ограничено!!!

iTunes

1+1

iTunes

мы

iTunes

1

iTunes

Чернобыль

iTunes

Ральф против интернета

Лицензия

ПШазам

Лицензия

Игра престолов

Лицензия

30
pack

ВАЖНО

!!Акция!!

Alien_RageХит недели

RePack

Resident Evil 21

ИГРА 18+

pack

RePack

Metro:Exodus

!!Акция!!

Alien_Rage

RePack

fifa19

RePack

Assassins Creed: Odyssey

RePack

NEED FOR SPEED™ PAYBACK

3 сезон

9 сезон

Бесстыжие 9 сезон

Все сериалы

все сериалы на PB.wtf

RePack

FAR CRY 5
Ребята, катастрофически не хватает 7730р. для оплаты серверов за АВГУСТ (всвязи с блокировками трафик упал в 3 раза), 1-2р., выручайте.
  

Особо опасный преступник / Most Wanted (Дэвид Хоган / David Hogan) [1997, боевик, триллер, DVDRip] [AVO] (В. Горчаков) pb.wtf

Особо опасный преступник через торрент pb.wtf

Размер: 1.14 GB | Добавлен: 6 лет 2 мес. назад | Торрент скачан:36 раз
Скачать  

07-07-2013 11:16 Особо опасный преступник Скачать торрент  


Особо опасный преступник / Most Wanted


Год выпуска: 1997
Выпущено: США
Жанр: боевик, триллер
Продолжительность: 01:38:55
Перевод: Авторский (одноголосный) [В. Горчаков]
Субтитры: нет

Режиссер: Дэвид Хоган / David Hogan
В ролях: Кинен Айвори Уайанс, Роберт Котечки, Рик Крамер, Пол Сорвино, Кенн Уайтакер, Вольфганг Бодисон, Джон Войт, Эдди Велес, Майкл Марич, Саймон Бейкер, Джилл Хеннесси, Эрик Робертс

Описание: Джеймс Данн, снайпер морской пехоты, участник войны в Ираке, отказался выстрелить в десятилетнего мальчишку и случайно убил сержанта, заставлявшего его это сделать. Данна приговорили к смертной казни, но из тюрьмы он был выкран и получил предложение работать в секретном правительственном подразделении подполковника Кейси.Вынужденный согласиться, Джеймс получил первое задание: ликвидировать известного промышленника во время открытия госпиталя для ветеранов. Но до выстрела Данна раздался другой выстрел, сразивший первую леди — жену президента, присутствовавшую на церемонии. Очень быстро Данн понял, что его подставили, чтобы выдать за убийцу-одиночку. Преследуемый врагами, он начинает самостоятельное расследование, в котором ему помогает молодая врач, случайно заснявшая на видео настоящего убийцу.



Качество: DVDRip
Формат: AVI
Видео кодек: XviD
Аудио кодек: AC3
Видео: 720x304 (2.37:1), 23.976 fps, DivX Codec 5.x or 6.x ~1441 kbps avg, 0.27 bit/pixel
Аудио: 48 kHz, AC3 Dolby Digital, 2/0 (L,R) ch, ~192.00 kbps avg

Дорожка с В. Горчаковым cинхронизирована и наложена (ale_x2008) при помощи Sony Vegas и VirtualDubMod
За оцифрованную с VHS дорожку благодарим - Fikaloid и за активное участие - Sergunka172
E:INTERNETMost Wanted.1997.DVDRip. [AVO] (Gor4akov).avi
General
Complete name : E:INTERNETMost Wanted.1997.DVDRip. [AVO] (Gor4akov).avi
Format : AVI
Format/Info : Audio Video Interleave
File size : 1.14 GiB
Duration : 1h 38mn
Overall bit rate : 1 643 Kbps
Writing application : VirtualDubModRus 1.5.10.2 (build 2542/release)
Writing library : VirtualDubMod build 2542/release
Video #0
ID : 0
Format : MPEG-4 Visual
Format settings, BVOP : 1
Format settings, QPel : No
Format settings, GMC : No warppoints
Format settings, Matrix : Default (H.263)
Codec ID : DX50
Codec ID/Hint : DivX 5
Duration : 1h 38mn
Bit rate : 1 442 Kbps
Width : 720 pixels
Height : 304 pixels
Display aspect ratio : 2.35:1
Frame rate : 23.976 fps
Color space : YUV
Chroma subsampling : 4:2:0
Bit depth : 8 bits
Scan type : Progressive
Compression mode : Lossy
Bits/(Pixel*Frame) : 0.275
Stream size : 1 020 MiB (88%)
Writing library : DivX 6.8.5 (UTC 2009-08-20)
Audio #1
ID : 1
Format : AC-3
Format/Info : Audio Coding 3
Mode extension : CM (complete main)
Format settings, Endianness : Big
Codec ID : 2000
Duration : 1h 38mn
Bit rate mode : Constant
Bit rate : 192 Kbps
Channel(s) : 2 channels
Channel positions : Front: L R
Sampling rate : 48.0 KHz
Bit depth : 16 bits
Compression mode : Lossy
Stream size : 136 MiB (12%)
Alignment : Split accross interleaves
Interleave, duration : 42 ms (1.00 video frame)
Interleave, preload duration : 500 ms


pb.wtf



Скачать Особо опасный преступник через торрент http://i28.fastpic.ru/big/2012/0109/56/9956d3110bb3fa8c728e8b8d75140256.jpg Скачать фильм Особо опасный преступник через торрент бесплантно в хорошем качестве Описание: Джеймс Данн, снайпер морской пехоты, участник войны в Ираке, отказался выстрелить в десятилетнего мальчишку и случайно убил ... 9 10 7
Info! Золотая раздача, скачанное не засчитывается.
Торрент: Зарегистрирован [2013-07-07 11:16] · скачан: 36 раз
Статус: √ проверено
Размер: 1.14 GB
Как cкачать? Как скачать Особо опасный преступник через торрент | qTorrent

% Раздел Тема Автор DL S | L
Фильмы до 2000 г. [ 747 MB ] Особо опасный преступник / Разыскивается преступник / Most Wanted [1997 DVDRip] AleXi$_Steel Скачать
1 | 0
Фильмы с авторской озвучкой [ 747 MB ] Особо опасный преступник / Most Wanted [1997 DVDRip] [AVO] killermax2013 Скачать
1 | 0


>> Регистрируемся здесь <<






Отзывы и комментарии о схеме читаем и пишем здесь: ---> Отзывы и комментарии о схеме

Новые благодарочки в телеграм довольных пользователей:
скриншот   скриншот   скриншот   скриншот   скриншот
    Дорогой пользователь! Огромная просьба, поблагодарите релизера, оцените раздачу и оставьте свои комментарий, если Вы скачали Особо опасный преступник через торрент бесплатно! Внесите свою лепту в развитие PiratBit!
    Комментировать посты могут только пользователи прошедшие не сложную регистрацию
    Показать сообщения:    

    Особо опасный преступник через торрент
    Скачать бесплатно Особо опасный преступник
    Особо опасный преступник скачать торрент
    Особо опасный преступник смотреть онлайн
    Cкачать фильм Особо опасный преступник бесплатно
    Особо опасный преступник скачать торрент в хорошем качестве
    Особо опасный преступник смотреть онлайн бесплатно в хорошем качестве


    Вы не можете начинать темы
    Вы не можете отвечать на сообщения
    Вы не можете редактировать свои сообщения
    Вы не можете удалять свои сообщения
    Вы не можете голосовать в опросах
    Вы не можете прикреплять файлы к сообщениям
    Вы можете скачивать файлы