Всегда рабочее зеркало без VPN и Proxy просто перед .vidak.icu напиши любое слово или цифру, Пример http://6ap8.vidak.icu

Лицензия

MVO

1 сезон

1

1 сезон

iTunes

1 сезон

13

1 сезон

Deluxe

pack

Рекомендуем

Repack

30

ВАЖНО

RePack

MK11

RePack

jed

RePack

fifa19

RePack

RDR2

RePack

NEED FOR SPEED™ PAYBACK

Кинопоиск HD

6 сезон

 Острые козырьки 6 сезон

Все сериалы

все сериалы на PB.wtf

RePack

FAR CRY 5
  
Magnet ссылка

Рикошет / Ricochet (Ник Гомез / Nick Gomez) [2011 , США , драма, детектив , HDTVRip] MVO pb.wtf

Рикошет через торрент pb.wtf

Размер: 1.36 GB | Добавлен: 9 лет 1 мес. назад | Торрент скачан:108 раз
Смотреть онлайн Рикошет | Скачать    Ребята, помогите собрать деньги на оплату серверов!!!

07-07-2013 14:42 Рикошет Скачать торрент  

Рикошет / Ricochet


  • Год выпуска:2011
  • Страна: США
  • Жанр:драма, детектив
  • Продолжительность: 01:29:18
  • Перевод:Профессиональный (многоголосый, закадровый)

  • Субтитры: Нет
    • Режиссер: Ник Гомез / Nick Gomez
    • Продюсер:Кристофер Морган / Christopher Morgan, Ховард Браунштейн / Howard Braunstein, Джо Файнмен / Joe Fineman, Джим Хэд / Jim Head, Andrea P. Stilgenbauer
    • Сценарий:Дональд Мартин / Donald Martin, Сандра Браун / Sandra Brown

  • В ролях:Джули Бенц (Elise Laird), Николас Шон Гомез (Antonio Esteban), Гэри Коул (Judge Cato Laird), Джон Корбетт (Detective Duncan Hatcher), Гэри Граббс (Police Captain Gerrard), Келли Овертон (Detective Deedee Bowen), Кадим Хардисон (Bob Worley), Бо Брассо (Officer Waligory), Бриттни Элгер (Jenny), Хааз Слейман (RobertSavich), Тери Уайбл (Redhead), Индиго (A.D.A. Mary Nelson)
    • Описание:
      После того, как судья оправдывает подсудимого, детектив Хатчер становится на путь правосудия. Спустя несколько недель после оправдания, Элиз Лэрд, жена судьи, сталкивается с грабителем и убивает его в доме...

  • Рейтинг
    kinopoisk.ru: 5.222 (20)
    imdb.com: 5.20 (155)
    • Качество: HDTVRip
    • Формат: AVI
    • Видео кодек: XviD
    • Аудио кодек: AC3
    • Видео: XviD, 720x400 (16:9), 1778 kbps, 23,976 fps, 0,258 bpp
    • Аудио №1: AC3 / 2.0 / 48 kHz / 192 kbps / 16 bit -Russian
      Аудио №2: AC3 / 2.0 / 48 kHz / 192 kbps / 16 bit- German

    General
    Complete name : D:ТорентыRicochet.2011.P.HDRip.1400Mb.avi
    Format : AVI
    Format/Info : Audio Video Interleave
    File size : 1.36 GiB
    Duration : 1h 29mn
    Overall bit rate : 2 177 Kbps
    Writing application : VirtualDubMod 1.5.10.2 (build 2540/release)
    Writing library : VirtualDubMod build 2540/release

    Video
    ID : 0
    Format : MPEG-4 Visual
    Format profile : Advanced [email protected]
    Format settings, BVOP : 2
    Format settings, QPel : No
    Format settings, GMC : No warppoints
    Format settings, Matrix : Default (MPEG)
    Codec ID : XVID
    Codec ID/Hint : XviD
    Duration : 1h 29mn
    Bit rate : 1 779 Kbps
    Width : 720 pixels
    Height : 400 pixels
    Display aspect ratio : 16:9
    Frame rate : 23.976 fps
    Color space : YUV
    Chroma subsampling : 4:2:0
    Bit depth : 8 bits
    Scan type : Progressive
    Compression mode : Lossy
    Bits/(Pixel*Frame) : 0.258
    Stream size : 1.11 GiB (82%)
    Writing library : XviD 1.2.1 (UTC 2008-12-04)

    Audio #1
    ID : 1
    Format : AC-3
    Format/Info : Audio Coding 3
    Mode extension : CM (complete main)
    Codec ID : 2000
    Duration : 1h 29mn
    Bit rate mode : Constant
    Bit rate : 192 Kbps
    Channel(s) : 2 channels
    Channel positions : Front: L R
    Sampling rate : 48.0 KHz
    Bit depth : 16 bits
    Compression mode : Lossy
    Stream size : 123 MiB (9%)
    Alignment : Split accross interleaves
    Interleave, duration : 42 ms (1.00 video frame)
    Interleave, preload duration : 500 ms

    Audio #2
    ID : 2
    Format : AC-3
    Format/Info : Audio Coding 3
    Mode extension : CM (complete main)
    Codec ID : 2000
    Duration : 1h 29mn
    Bit rate mode : Constant
    Bit rate : 192 Kbps
    Channel(s) : 2 channels
    Channel positions : Front: L R
    Sampling rate : 48.0 KHz
    Bit depth : 16 bits
    Compression mode : Lossy
    Stream size : 123 MiB (9%)
    Alignment : Split accross interleaves
    Interleave, duration : 42 ms (1.00 video frame)
    Interleave, preload duration : 500 ms
    Сценарий: Дональд Мартин / Donald Martin, Сандра Браун / Sandra Brown
    Продюсер: Кристофер Морган / Christopher Morgan, Ховард Браунштейн / Howard Braunstein, Джо Файнмен / Joe Fineman, Джим Хэд / Jim Head, Andrea P. Stilgenbauer
    Оператор: Том Хартинг / Tom Harting
    Композитор: Крис П. Бэйкон / Chris P. Bacon

    Мировая премьера: 30 ноября 2011




    © Оформление by Vetalpb.wtf



  • Скачать Рикошет через торрент http://i6.imageban.ru/out/2013/07/07/47f6d950939661ccd7a083142d35cc66.png Скачать, смотреть онлайн Рикошет бесплантно в хорошем качестве Описание:После того, как судья оправдывает подсудимого, детектив Хатчер становится на путь правосудия. Спустя несколько недель после ... 9.9 10 7
    Info! Золотая раздача, скачанное не засчитывается.
    Торрент: Зарегистрирован [2013-07-07 14:42] · скачан: 108 раз
    Статус: √ проверено
    Размер: 1.36 GB
    Как cкачать? Как скачать Рикошет через торрент | UTorrent

    28-11-2019 20:33  

    Отключить вcю реклaмy на сайте

    07-07-2013 19:09 Рикошет Скачать торрент  

    На втором скрине девушка с ,,Вызова,, глянем)pb.wtf



      Дорогой пользователь! Огромная просьба, поблагодарите релизера, оцените раздачу и оставьте свои комментарий, если Вы скачали Рикошет через торрент бесплатно!
      Комментировать посты могут только пользователи прошедшие не сложную регистрацию
      Показать сообщения:    

      Рикошет через торрент
      Скачать бесплатно Рикошет
      Рикошет скачать торрент
      Рикошет смотреть онлайн
      Cкачать фильм Рикошет бесплатно
      Рикошет скачать торрент в хорошем качестве
      Рикошет смотреть онлайн бесплатно в хорошем качестве


      Вы не можете начинать темы
      Вы не можете отвечать на сообщения
      Вы не можете редактировать свои сообщения
      Вы не можете удалять свои сообщения
      Вы не можете голосовать в опросах
      Вы не можете прикреплять файлы к сообщениям
      Вы можете скачивать файлы