Ссылка на приватное зеркало всего за 1$. Внимание количество ограничено!!!

iTunes

1+1

iTunes

мы

WEB-DL

1

iTunes

Чернобыль

iTunes

Ральф против интернета

Лицензия

ПШазам

Лицензия

Оно 2

Лицензия

30
pack

Вам бонус

ВАЖНО

!!Акция!!

Alien_RageХит недели

RePack

Resident Evil 21

ИГРА 18+

pack

RePack

jed

!!Акция!!

Alien_Rage

RePack

fifa19

RePack

Assassins Creed: Odyssey

RePack

NEED FOR SPEED™ PAYBACK

3 сезон

9 сезон

Бесстыжие 9 сезон

Все сериалы

все сериалы на PB.wtf

RePack

FAR CRY 5
Ребята, катастрофически не хватает 1900р. для оплаты серверов за Октябрь (всвязи с блокировками трафик упал в 3 раза), 1-2р., выручайте.
  

Полный беспредел / Outrage Beyond (Такеши Китано) [2012 г., триллер, драма, криминал, BDRip-AVC, MVO, лицензия] pb.wtf

Полный беспредел через торрент pb.wtf

Размер: 2.18 GB | Добавлен: 6 лет 5 мес. назад | Торрент скачан:335 раз
Скачать  

07-07-2013 22:31 Полный беспредел Скачать торрент  

Полный беспредел / Outrage Beyond
  • Год выпуска: 2012
  • Страна: Япония
  • Жанр: триллер, драма, криминал
  • Продолжительность: 01:52:28
  • Перевод: Профессиональный (многоголосый, закадровый), Лицензия
  • Субтитры: Нет

  • Режиссер: Такеши Китано
  • Продюссер: Масаюки Мори, Такио Ёсида, Такео Хисамацу
  • Сценарий: Такеши Китано





  • В ролях: Такеши Китано, Рё Касэ, Тосиюки Нисида, Сюн Сугата, Томокадзу Миура, Кен Мицуйси, Мачико Оно, Кента Киритани, Сигэру Кояма, Хирофуми Арай, Фумиё Кохината, Ютака Мацусигэ, Акира Накао, Сансей Шиоми, Хакурю, Катсунори Такахаси

  • Описание: Криминальная семья Санно выросла в огромную организацию, чья Влacть распространилась на политику и крупный легальный бизнес. Амбициозный детектив Катаока при помощи тайных заговоров и грязных трюков провоцирует конфликт Между Санно и их давними врагами Ханабиши, надеясь, что они окончательно уничтожат друг друга.
    Но козырем в руках Катаоки может стать тот факт, что из тюрьмы готовится выйти Отомо, босс семьи, когда-то раздавленной Санно, которого многие считали мертвым. Неожиданное возвращение Отомо сеет еще больше лжи и предательства между семьям. Невозможно угадать, кто одержит верх в этой свирепой схватке за Влacть.

  • Качество: BDRip-AVC
  • Формат: MKV
  • Видео кодек: H.264
  • Аудио кодек: AC3
  • Видео: AVC / High@L4.1 / 2 pass / 23,976 fps / 1024x428p (2,40:1) / 2323 Kbps / 0.221
  • Аудио#1: AC3 / 5.1 ch / 448 kbps / Русский MVO, BD RUS





    D:Outrage.Beyond.2012.JPN.Transfer.BDRip.AVC(Killbrain).mkv
    General
    Unique ID : 171780205797164364324632481924018608121 (0x813BAA0A4EA793158CD304448A0C17F9)
    Complete name : D:Outrage.Beyond.2012.JPN.Transfer.BDRip.AVC(Killbrain).mkv
    Format : Matroska
    Format version : Version 4 / Version 2
    File size : 2.18 GiB
    Duration : 1h 52mn
    Overall bit rate : 2 771 Kbps
    Movie name : Outrage Beyond / Autoreiji: Biyondo (2012) by Killbrain / JPN Transfer
    Encoded date : UTC 2013-07-05 09:06:34
    Writing application : mkvmerge v6.2.0 ('Promised Land') built on Apr 28 2013 12:22:01
    Writing library : libebml v1.3.0 + libmatroska v1.4.0
    Video #1
    ID : 1
    Format : AVC
    Format/Info : Advanced Video Codec
    Format profile : High@L4.1
    Format settings, CABAC : Yes
    Format settings, ReFrames : 9 frames
    Codec ID : V_MPEG4/ISO/AVC
    Duration : 1h 52mn
    Bit rate : 2 323 Kbps
    Width : 1 024 pixels
    Height : 428 pixels
    Display aspect ratio : 2.40:1
    Frame rate : 23.976 fps
    Color space : YUV
    Chroma subsampling : 4:2:0
    Bit depth : 8 bits
    Scan type : Progressive
    Bits/(Pixel*Frame) : 0.221
    Stream size : 1.78 GiB (82%)
    Title : Outrage Beyond / Autoreiji: Biyondo (2012)
    Writing library : x264 core 133 r2334 a3ac64b
    Encoding settings : cabac=1 / ref=9 / deblock=1:-2:-2 / analyse=0x3:0x113 / me=umh / subme=10 / psy=1 / psy_rd=1.00:0.15 / mixed_ref=1 / me_range=32 / chroma_me=1 / trellis=2 / 8x8dct=1 / cqm=0 / deadzone=21,11 / fast_pskip=0 / chroma_qp_offset=-3 / threads=3 / lookahead_threads=1 / sliced_threads=0 / nr=0 / decimate=0 / interlaced=0 / bluray_compat=0 / constrained_intra=0 / bframes=8 / b_pyramid=2 / b_adapt=2 / b_bias=0 / direct=3 / weightb=1 / open_gop=0 / weightp=2 / keyint=240 / keyint_min=24 / scenecut=40 / intra_refresh=0 / rc_lookahead=60 / rc=2pass / mbtree=0 / bitrate=2323 / ratetol=1.0 / qcomp=0.65 / qpmin=0 / qpmax=69 / qpstep=4 / cplxblur=20.0 / qblur=0.5 / vbv_maxrate=40000 / vbv_bufsize=30000 / nal_hrd=none / ip_ratio=1.40 / pb_ratio=1.30 / aq=2:0.80
    Language : Japanese
    Default : Yes
    Forced : No
    Audio #2
    ID : 2
    Format : AC-3
    Format/Info : Audio Coding 3
    Mode extension : CM (complete main)
    Format settings, Endianness : Big
    Codec ID : A_AC3
    Duration : 1h 52mn
    Bit rate mode : Constant
    Bit rate : 448 Kbps
    Channel(s) : 6 channels
    Channel positions : Front: L C R, Side: L R, LFE
    Sampling rate : 48.0 KHz
    Bit depth : 16 bits
    Compression mode : Lossy
    Stream size : 360 MiB (16%)
    Title : AC3 / 5.1 ch / 448 kbps / Русский MVO, BD RUS
    Language : Russian
    Default : Yes
    Forced : No


    Полный беспредел скачать торрент


    pb.wtf



  • Скачать Полный беспредел через торрент http://pic.kartinco.top/images/3/q92l4yswsi.jpg Скачать фильм Полный беспредел через торрент бесплантно в хорошем качестве Описание: Криминальная семья Санно выросла в огромную организацию, чья Влacть распространилась на политику и крупный легальный бизнес. ... 9.9 10 14
    Info! Золотая раздача, скачанное не засчитывается.
    Торрент: Зарегистрирован [2013-07-07 22:31] · скачан: 335 раз
    Статус: √ проверено
    Размер: 2.18 GB
    Как cкачать? Как скачать Полный беспредел через торрент | qTorrent

    28-11-2019 20:33  

    Отключить всю рекламу на сайте

    08-07-2013 07:28 Полный беспредел Скачать торрент  

    Хороший жесткий фильмpb.wtf



    08-07-2013 07:38 Полный беспредел Скачать торрент  

    спасибо хороший фильм :jest3:pb.wtf



    08-07-2013 08:02 Полный беспредел Скачать торрент  

    Такеши красавчик!!pb.wtf



    08-07-2013 11:25 Полный беспредел Скачать торрент  

    Это почти документальный (игровой) фильм! На любителя!pb.wtf



      Дорогой пользователь! Огромная просьба, поблагодарите релизера, оцените раздачу и оставьте свои комментарий, если Вы скачали Полный беспредел через торрент бесплатно! Внесите свою лепту в развитие PiratBit!
      Комментировать посты могут только пользователи прошедшие не сложную регистрацию
      Показать сообщения:    

      Полный беспредел через торрент
      Скачать бесплатно Полный беспредел
      Полный беспредел скачать торрент
      Полный беспредел смотреть онлайн
      Cкачать фильм Полный беспредел бесплатно
      Полный беспредел скачать торрент в хорошем качестве
      Полный беспредел смотреть онлайн бесплатно в хорошем качестве


      Вы не можете начинать темы
      Вы не можете отвечать на сообщения
      Вы не можете редактировать свои сообщения
      Вы не можете удалять свои сообщения
      Вы не можете голосовать в опросах
      Вы не можете прикреплять файлы к сообщениям
      Вы можете скачивать файлы