2 сезон

iTunes

1 сезон

1

iTunes

iTunes

iTunes

1 сезон

RePack

30

ИГРА 18+

pack

ВАЖНО

!!Акция!!

Alien_RageХит недели

RePack

MK11
pack

Забери бонус

RePack

jed

!!Акция!!

Alien_Rage

RePack

fifa19

RePack

Assassins Creed: Odyssey

RePack

NEED FOR SPEED™ PAYBACK

4 сезон

9 сезон

Бесстыжие 9 сезон

Все сериалы

все сериалы на PB.wtf

RePack

FAR CRY 5
  

Сейчас самое время / Now Is Good (Ол Паркер) [2012 г., Мелодрама, BDRip 720p, Дубляж, лицензия] pb.wtf

Сейчас самое время через торрент pb.wtf

Размер: 6.05 GB | Добавлен: 7 лет 3 мес. назад | Торрент скачан:37 раз
Скачать  

08-07-2013 08:06 Сейчас самое время Скачать торрент  



Сейчас самое время / Now Is Good «Живи. Люби. Мечтай.» Год выпуска: 2012
Страна: Великобритания
Жанр: Мелодрама
Продолжительность: 01:42:45
Перевод: Дубляж, Лицензия
Тип релиза: Лицензия
Субтитры: Есть

Режиссер: Ол Паркер
Продюссер: Грэхэм Броадбент, Питер Чернин, Малина ДеКарло
Сценарий: Ол Паркер, Дженни Даунхэм

Премьера в мире: 31 августа 2012





В ролях: Дакота Фаннинг, Джереми Ирвин, Пэдди Консидайн, Оливия Уильямс, Кая Скоделарио, Роуз Лесли, Сара Хэдлэнд, Джо Коул, Рэки Айола, Патрик Балади

Описание: Тессе семнадцать, и она хочет жить нормальной жизнью. Она мечтает о тех же вещах, что и все подростки. Но что делать, если времени осталось мало? Тесса принимает решение, прожить все, что отмерено, так, чтобы ни одна минута не пропала зря. Девушка составляет список того, что обязательно нужно успеть: потерять невинность, попробовать наркотики, прыгнуть с парашютом, по-настоящему полюбить. Она шаг за шагом воплощает свои намерения. Но внезапно вспыхнувшее чувство к соседскому парню Адаму меняет все ее планы.

Качество: BDRip 720p
Формат: MKV
Видео кодек: H.264
Аудио кодек: DTS
Видео: 1280x528 (2.40:1), 24.000 fps, 5 410 Kbps (0.334 bit/pixel)
Аудио#1: DTS, 48.0 KHz, 6 ch, 1 510 Kbps, CBR (Russian)
Аудио#2: DTS, 48.0 KHz, 6 ch, 1 510 Kbps, CBR (English)
Субтитры: Russian








Общее
Уникальный идентификатор : 192385947820601676145041510347616707527 (0x90BC2F8F31681D348BD1003D7B5663C7)
Полное имя : E:Сейчас самое время.2012.BDRip.720p..mkv
Формат : Matroska
Версия формата : Version 2
Размер файла : 6,05 Гбайт
Продолжительность : 1 ч. 42 м.
Общий поток : 8424 Кбит/сек
Название фильма : Сейчас самое время
Дата кодирования : UTC 2013-01-22 17:46:12
Программа кодирования : mkvmerge v5.3.0 ('I could have danced') built on Feb 9 2012 10:38:07
Библиотека кодирования : libebml v1.2.3 + libmatroska v1.3.0

Видео
Идентификатор : 1
Формат : AVC
Формат/Информация : Advanced Video Codec
Профиль формата : High@L4.1
Параметр CABAC формата : Да
Параметр ReFrames формата : 10 кадров
Идентификатор кодека : V_MPEG4/ISO/AVC
Продолжительность : 1 ч. 42 м.
Битрейт : 5410 Кбит/сек
Ширина : 1280 пикселей
Высота : 528 пикселей
Соотношение сторон : 2,40:1
Режим частоты кадров : Постоянный
Частота кадров : 24,000 кадра/сек
Цветовое пространство : YUV
Субдискретизация насыщенности : 4:2:0
Битовая глубина : 8 бит
Тип развёртки : Прогрессивная
Бит/(Пиксели*Кадры) : 0.334
Размер потока : 3,76 Гбайт (62%)
Заголовок : Sejchas.samoe.vremja.2012.D.BDRip.720p
Библиотека кодирования : x264 core 119 r2106 07efeb4
Настройки программы : cabac=1 / ref=10 / deblock=1:-3:-3 / analyse=0x3:0x113 / me=umh / subme=11 / psy=1 / psy_rd=1.10:1.00 / mixed_ref=1 / me_range=32 / chroma_me=1 / trellis=2 / 8x8dct=1 / cqm=0 / deadzone=21,11 / fast_pskip=0 / chroma_qp_offset=-4 / threads=6 / sliced_threads=0 / nr=0 / decimate=1 / interlaced=0 / bluray_compat=0 / constrained_intra=0 / bframes=8 / b_pyramid=2 / b_adapt=2 / b_bias=0 / direct=3 / weightb=1 / open_gop=0 / weightp=2 / keyint=250 / keyint_min=23 / scenecut=40 / intra_refresh=0 / rc=2pass / mbtree=0 / bitrate=5410 / ratetol=1.0 / qcomp=0.65 / qpmin=0 / qpmax=69 / qpstep=4 / cplxblur=20.0 / qblur=0.5 / ip_ratio=1.40 / pb_ratio=1.30 / aq=1:1.00
Язык : English
Default : Да
Forced : Нет

Аудио #1
Идентификатор : 2
Формат : DTS
Формат/Информация : Digital Theater Systems
Режим : 16
Параметр Endianness формата : Big
Идентификатор кодека : A_DTS
Продолжительность : 1 ч. 42 м.
Вид битрейта : Постоянный
Битрейт : 1509 Кбит/сек
Каналы : 6 каналов
Расположение каналов : Front: L C R, Side: L R, LFE
Частота : 48,0 КГц
Битовая глубина : 24 бит
Метод сжатия : С потерями
Размер потока : 1,08 Гбайт (18%)
Язык : Russian
Default : Да
Forced : Нет

Аудио #2
Идентификатор : 3
Формат : DTS
Формат/Информация : Digital Theater Systems
Режим : 16
Параметр Endianness формата : Big
Идентификатор кодека : A_DTS
Продолжительность : 1 ч. 42 м.
Вид битрейта : Постоянный
Битрейт : 1509 Кбит/сек
Каналы : 6 каналов
Расположение каналов : Front: L C R, Side: L R, LFE
Частота : 48,0 КГц
Битовая глубина : 24 бит
Метод сжатия : С потерями
Размер потока : 1,08 Гбайт (18%)
Язык : English
Default : Нет
Forced : Нет

Текст
Идентификатор : 4
Формат : UTF-8
Идентификатор кодека : S_TEXT/UTF8
Идентификатор кодека/Информация : UTF-8 Plain Text
Заголовок : Сейчас самое время.Blu-Ray
Язык : Russian
Default : Нет
Forced : Нет

Меню
00:00:00.000 : en:00:00:00.000
00:10:30.333 : en:00:10:30.333
00:17:27.417 : en:00:17:27.417
00:23:41.583 : en:00:23:41.583
00:30:31.542 : en:00:30:31.542
00:37:38.458 : en:00:37:38.458
00:44:25.750 : en:00:44:25.750
00:53:31.833 : en:00:53:31.833
01:02:39.292 : en:01:02:39.292
01:12:49.417 : en:01:12:49.417
01:20:58.458 : en:01:20:58.458
01:30:44.125 : en:01:30:44.125



pb.wtf



Скачать Сейчас самое время через торрент http://pic.kartinco.top/images/3/layh8328dg.png Скачать фильм Сейчас самое время через торрент бесплантно в хорошем качестве Описание: Тессе семнадцать, и она хочет жить нормальной жизнью. Она мечтает о тех же вещах, что и все подростки. Но что делать, если ... 10 10 6
Info! Золотая раздача, скачанное не засчитывается.
Торрент: Зарегистрирован [2013-07-08 08:06] · скачан: 37 раз
Статус: √ проверено
Размер: 6.05 GB
Как cкачать? Как скачать Сейчас самое время через торрент | qTorrent

% Раздел Тема Автор DL S | L
Фильмы 2012 [ 1.37 GB ] Сейчас самое время / Now Is Good [2012 HDRip DUB лицензия] кэп Скачать
1 | 0
Фильмы [HD 720p, 1080p] (Хороший звук DUB, MVO) [ 10.05 GB ] Сейчас самое время / Now Is Good [2012 BDRip 1080p MVO лицензия] Анонимный Скачать
1 | 0
Фильмы (DVD фильмы) [ 6.55 GB ] Сейчас самое время / Now Is Good [2012 DVD9] R5 voovaz Скачать
1 | 0

28-11-2019 20:33  

Отключить всю рекламу на сайте

    Дорогой пользователь! Огромная просьба, поблагодарите релизера, оцените раздачу и оставьте свои комментарий, если Вы скачали Сейчас самое время через торрент бесплатно! Внесите свою лепту в развитие PiratBit!
    Комментировать посты могут только пользователи прошедшие не сложную регистрацию
    Показать сообщения:    

    Сейчас самое время через торрент
    Скачать бесплатно Сейчас самое время
    Сейчас самое время скачать торрент
    Сейчас самое время смотреть онлайн
    Cкачать фильм Сейчас самое время бесплатно
    Сейчас самое время скачать торрент в хорошем качестве
    Сейчас самое время смотреть онлайн бесплатно в хорошем качестве


    Вы не можете начинать темы
    Вы не можете отвечать на сообщения
    Вы не можете редактировать свои сообщения
    Вы не можете удалять свои сообщения
    Вы не можете голосовать в опросах
    Вы не можете прикреплять файлы к сообщениям
    Вы можете скачивать файлы