Ссылка на приватное зеркало нашего сайта всего за 1$. Внимание количество ограничено!!!

2 сезон

iTunes

1 сезон

1

iTunes

iTunes

iTunes

1 сезон

RePack

30

ИГРА 18+

pack

ВАЖНО

!!Акция!!

Alien_RageХит недели

RePack

MK11
pack

Забери бонус

RePack

jed

!!Акция!!

Alien_Rage

RePack

fifa19

RePack

Assassins Creed: Odyssey

RePack

NEED FOR SPEED™ PAYBACK

4 сезон

9 сезон

Бесстыжие 9 сезон

Все сериалы

все сериалы на PB.wtf

RePack

FAR CRY 5
  

100 акров крови / 100 кровавых акров / 100 Bloody Acres (Камерон Кайрнес) [2012, Австралия, Комедия, ужасы, WEB-DLRip] VO (Васька Куролесов) pb.wtf

100 акров крови через торрент pb.wtf

Размер: 696 MB | Добавлен: 7 лет 3 мес. назад | Торрент скачан:172 раза
Скачать  

08-07-2013 15:14 100 акров крови Скачать торрент  

100 кровавых акров / 100 Bloody Acres


  • Год выпуска:2012
  • Страна: Австралия
  • Жанр:ужасы, комедия
  • Продолжительность: 01:30:58
  • Перевод:Любительский (одноголосый) (Васька Куролесов)

  • Субтитры: Нет
    • Режиссер: Cameron Cairnes, Colin Cairnes
    • Продюсер:Кейт Крозер / Kate Croser, Джули Райан / Julie Ryan, Брайс Мензес / Bryce Menzies, Джонатан Пейдж / Jonathan Page
    • Сценарий:Cameron Cairnes, Colin Cairnes

  • В ролях:Дэймон Херриман (Reg Morgan), Энгус Сэмпсон (Lindsay Morgan), Анна МакГахэн (Sophie), Оливер Экланд (James), Джеймс Кристиан (Wesley), Джон Джэррэт (Burke), Крисси Пейдж (Nancy), Пол Блэкуэлл (Charlie Wick), Ward Everaardt (Bernard St John)
    • Описание:
      Двое друзей Рег и Линдси занимаются производством органических удобрений и бизнес их более чем успешно развивается, что не мудрено, ведь в производстве они используют один тайный ингридиент, который проворачивают через мясорубку!

  • Рейтинг
    imdb.com: 6.50 (126)
    • Качество: WEB-DLRip
    • Формат: AVI
    • Видео кодек: XviD
    • Аудио кодек: MP3
    • Видео: XviD, 688x288 (2.40:1), 932 kbps, 23,976 fps, 0,196 bpp
    • Аудио: MP3 / 2.0 / 48 kHz / 128 kbps /

    General
    Complete name : D:Торенты100.bloody.acres.2012.WEB-DLRip..avi
    Format : AVI
    Format/Info : Audio Video Interleave
    File size : 696 MiB
    Duration : 1h 30mn
    Overall bit rate : 1 070 Kbps
    Movie name : 100.bloody.acres.2012.WEB-DLRip.x-torrents.org
    Director : Odessit
    Writing application : VirtualDubMod 1.5.10.3 (build 2550/release)

    Video
    ID : 0
    Format : MPEG-4 Visual
    Format profile : Advanced Simple@L5
    Format settings, BVOP : 1
    Format settings, QPel : No
    Format settings, GMC : No warppoints
    Format settings, Matrix : Custom
    Codec ID : XVID
    Codec ID/Hint : XviD
    Duration : 1h 30mn
    Bit rate : 932 Kbps
    Width : 688 pixels
    Height : 288 pixels
    Display aspect ratio : 2.40:1
    Frame rate : 23.976 fps
    Color space : YUV
    Chroma subsampling : 4:2:0
    Bit depth : 8 bits
    Scan type : Progressive
    Compression mode : Lossy
    Bits/(Pixel*Frame) : 0.196
    Stream size : 607 MiB (87%)
    Writing library : XviD 73

    Audio
    ID : 1
    Format : MPEG Audio
    Format version : Version 1
    Format profile : Layer 3
    Mode : Joint stereo
    Mode extension : MS Stereo
    Codec ID : 55
    Codec ID/Hint : MP3
    Duration : 1h 30mn
    Bit rate mode : Constant
    Bit rate : 128 Kbps
    Channel(s) : 2 channels
    Sampling rate : 48.0 KHz
    Compression mode : Lossy
    Stream size : 83.3 MiB (12%)
    Alignment : Aligned on interleaves
    Interleave, duration : 42 ms (1.00 video frame)
    Interleave, preload duration : 504 ms
    Writing library : LAME3.99r
    Encoding settings : -m j -V 4 -q 2 -lowpass 17 -b 128
    Сценарий: Cameron Cairnes, Colin Cairnes
    Продюсер: Кейт Крозер / Kate Croser, Джули Райан / Julie Ryan, Брайс Мензес / Bryce Menzies, Джонатан Пейдж / Jonathan Page
    Оператор: Джон Броуили / John Brawley

    Сборы в США: $5 004

    Мировая премьера: 4 августа 2012


    © Оформление by Vetalpb.wtf



  • Скачать 100 акров крови через торрент http://i3.imageban.ru/out/2013/07/08/417001581f87fbc652b00e9f2be84558.png Скачать фильм 100 акров крови через торрент бесплантно в хорошем качестве Описание:Двое друзей Рег и Линдси занимаются м органических удобрений и бизнес их более чем успешно развивается, что не ... 8.2 10 9
    Info! Золотая раздача, скачанное не засчитывается.
    Торрент: Зарегистрирован [2013-07-08 15:14] · скачан: 172 раз
    Статус: √ проверено
    Размер: 696 MB
    Как cкачать? Как скачать 100 акров крови через торрент | qTorrent

    % Раздел Тема Автор DL S | L
    Фильмы 2012 [ 1.46 GB ] 100 акров крови / 100 кровавых акров / 100 Bloody Acres [2012 Австралия WEB-DLRip] VO Ворон Скачать
    1 | 0

    28-11-2019 20:33  

    Отключить всю рекламу на сайте

      Дорогой пользователь! Огромная просьба, поблагодарите релизера, оцените раздачу и оставьте свои комментарий, если Вы скачали 100 акров крови через торрент бесплатно! Внесите свою лепту в развитие PiratBit!
      Комментировать посты могут только пользователи прошедшие не сложную регистрацию
      Показать сообщения:    

      100 акров крови через торрент
      Скачать бесплатно 100 акров крови
      100 акров крови скачать торрент
      100 акров крови смотреть онлайн
      Cкачать фильм 100 акров крови бесплатно
      100 акров крови скачать торрент в хорошем качестве
      100 акров крови смотреть онлайн бесплатно в хорошем качестве


      Вы не можете начинать темы
      Вы не можете отвечать на сообщения
      Вы не можете редактировать свои сообщения
      Вы не можете удалять свои сообщения
      Вы не можете голосовать в опросах
      Вы не можете прикреплять файлы к сообщениям
      Вы можете скачивать файлы