Присоединяйтесь к нам в Telegram!, здесь всегда актуальный адрес сайта, оперативная поддержка и многое другое!!

>

5.9

iTunes

7.4

iTunes

9.4

1 сезон

1

7.4

2 сезон

7.2

iTunes

7.3

1 сезон

13

6.1

iTunes

8.3

GOG

30

ULTIMATE

pack

9.9

Лицензия

ВАЖНО

ИГРА 18+

pack

7.3

RePack

MK11

7.7

RePack

jed

7.8

RePack

fifa19

8.5

RePack

RDR2

RePack

NEED FOR SPEED™ PAYBACK

5 сезон

9 сезон

Бесстыжие 9 сезон

Все сериалы

все сериалы на PB.wtf

RePack

FAR CRY 5

Anonymous, добрый день, мы катастрофически не успеваем собрать деньги на оплату серверов, помогите нам пожалуйста 5,10,15р., для нас важна любая помощь . В качестве благодарности мы отключим Вам всю рекламу на сайте (укажите свой ник в строку Ваше имя)!

×
  
Magnet ссылка

За всё заплачено (Алексей Салтыков) [1988, драма, военный, TVRip] pb.wtf

За всё заплачено через торрент pb.wtf

Размер: 2.89 GB | Добавлен: 8 лет 4 мес. назад | Торрент скачан:232 раза
Смотреть онлайн За всё заплачено | Скачать    Ребята, помогите собрать деньги на оплату серверов!!!

08-07-2013 15:52 За всё заплачено Скачать торрент  

За всё заплачено (3 серии)


  • Год выпуска:1988
  • Страна: СССР
  • Жанр:драма
  • Продолжительность: 01:16:13+ 01:12:12 + 01:18:42
  • Перевод:Не требуется

  • Субтитры: Нет
    • Режиссер: Алексей Салтыков
    • Сценарий:Александр Проханов, Алексей Салтыков, А. Смирнов

  • В ролях:Владимир Литвинов (Семёнов), Александр Баринов, Александр Миронов, А. Шерматов, Михаил Гилевич (Алесь), Олегар Федоро (бандит «Марадона»), Владимир Тимофеев, Алим Кулиев (урка), Виктор Павлов (Снегирёв), Владимир Носик, Лев Борисов (Малыгин), Ирина Сенотова (Лиля)
    • Описание:
      Герой фильма - прапорщик Семенов, вернувшись с афганской войны, ищет правду.

  • Рейтинг
    kinopoisk.ru: 6.714 (51)
    imdb.com: 4.00 (11)
    • Качество: TVRip
    • Формат: AVI
    • Видео кодек: XviD
    • Аудио кодек: AC3
    • Видео: XviD, 704x528 (4:3), 1616 kbps, 25 fps, 0,174 bpp
    • Аудио: AC3 / 2.0 / 48 kHz / 192 kbps / 16 bit

    General
    Complete name : D:ТорентыЗа всё заплачено_2.88За всё заплачено_2.88_1 с.avi
    Format : AVI
    Format/Info : Audio Video Interleave
    File size : 992 MiB
    Duration : 1h 16mn
    Overall bit rate : 1 819 Kbps
    Writing application : VirtualDubMod 1.5.10.3 | www.virtualdub-fr.org || (build 2550/release)
    Writing library : VirtualDubMod build 2550/release

    Video
    ID : 0
    Format : MPEG-4 Visual
    Format profile : Advanced Simple@L5
    Format settings, BVOP : 1
    Format settings, QPel : No
    Format settings, GMC : No warppoints
    Format settings, Matrix : Custom
    Codec ID : XVID
    Codec ID/Hint : XviD
    Duration : 1h 16mn
    Bit rate : 1 617 Kbps
    Width : 704 pixels
    Height : 528 pixels
    Display aspect ratio : 4:3
    Frame rate : 25.000 fps
    Color space : YUV
    Chroma subsampling : 4:2:0
    Bit depth : 8 bits
    Scan type : Progressive
    Compression mode : Lossy
    Bits/(Pixel*Frame) : 0.174
    Stream size : 882 MiB (89%)
    Writing library : XviD 65

    Audio
    ID : 1
    Format : AC-3
    Format/Info : Audio Coding 3
    Mode extension : CM (complete main)
    Codec ID : 2000
    Duration : 1h 16mn
    Bit rate mode : Constant
    Bit rate : 192 Kbps
    Channel(s) : 2 channels
    Channel positions : Front: L R
    Sampling rate : 48.0 KHz
    Bit depth : 16 bits
    Compression mode : Lossy
    Stream size : 105 MiB (11%)
    Alignment : Split accross interleaves
    Interleave, duration : 40 ms (1.00 video frame)
    Interleave, preload duration : 500 ms
    Сценарий: Александр Проханов, Алексей Салтыков, А. Смирнов
    Оператор: Александр Рябов
    Композитор: Игорь Назарук

    Мировая премьера: 23 января 1989


    © Оформление by Vetalpb.wtf



  • Скачать За всё заплачено через торрент http://i6.imageban.ru/out/2013/07/08/2bff7891925964250547de143ef0e338.jpg Скачать, смотреть онлайн За всё заплачено бесплантно в хорошем качестве Описание:Герой фильма - прапорщик Семенов, вернувшись с афганской войны, ищет правду.Рейтингkinopoisk.ru: 714 (51)imdb.com: 00 ... 9.5 10 6
    Info! Золотая раздача, скачанное не засчитывается.
    Торрент: Зарегистрирован [2013-07-08 15:52] · скачан: 232 раз
    Статус: √ проверено
    Размер: 2.89 GB
    Как cкачать? Как скачать За всё заплачено через торрент | UTorrent

    28-11-2019 20:33  

    Отключить всю рекламу на сайте

      Дорогой пользователь! Огромная просьба, поблагодарите релизера, оцените раздачу и оставьте свои комментарий, если Вы скачали За всё заплачено через торрент бесплатно!
      Комментировать посты могут только пользователи прошедшие не сложную регистрацию
      Показать сообщения:    

      За всё заплачено через торрент
      Скачать бесплатно За всё заплачено
      За всё заплачено скачать торрент
      За всё заплачено смотреть онлайн
      Cкачать фильм За всё заплачено бесплатно
      За всё заплачено скачать торрент в хорошем качестве
      За всё заплачено смотреть онлайн бесплатно в хорошем качестве


      Вы не можете начинать темы
      Вы не можете отвечать на сообщения
      Вы не можете редактировать свои сообщения
      Вы не можете удалять свои сообщения
      Вы не можете голосовать в опросах
      Вы не можете прикреплять файлы к сообщениям
      Вы можете скачивать файлы