Ссылка на приватное зеркало всего за 1$. Внимание количество ограничено!!!

iTunes

iTunes

iTunes

1

iTunes

iTunes

iTunes

iTunes

iTunes

30
pack

Новость дня

ВАЖНО

!!Акция!!

Alien_RageХит недели

RePack

Resident Evil 21

ИГРА 18+

pack

RePack

jed

!!Акция!!

Alien_Rage

RePack

fifa19

RePack

Assassins Creed: Odyssey

RePack

NEED FOR SPEED™ PAYBACK

4 сезон

9 сезон

Бесстыжие 9 сезон

Все сериалы

все сериалы на PB.wtf

RePack

FAR CRY 5
  

Ущелье "духов" (Сергей Нилов) [1991, драма, боевик, VHSRip] pb.wtf

Ущелье "духов" через торрент pb.wtf

Размер: 1.71 GB | Добавлен: 6 лет 10 мес. назад | Торрент скачан:247 раз
Скачать  

08-07-2013 15:59 Ущелье "духов" Скачать торрент  

Ущелье духов


  • Год выпуска:1991
  • Страна: Россия, Туркменистан
  • Жанр:боевик
  • Продолжительность: 01:21:33
  • Перевод:Не требуется

  • Субтитры: Нет
    • Режиссер: Сергей Нилов
    • Сценарий:Сергей Нилов, Александр Проханов

  • В ролях:Александр Казаков, Вадим Степашкин, Владислав Толдыков, Мулкоман Оразов, Денис Банников, Вадим Пожарский
    • Описание:
      О последней военной операции в Афганистане. Командир разведроты Грачев и его бойцы пытаются осмыслить суть этой странной и страшной войны...

  • Рейтинг
    kinopoisk.ru: 6.294 (36)
    • Качество: VHSRip
    • Формат: AVI
    • Видео кодек: XviD
    • Аудио кодек: MP3
    • Видео: XviD, 720x540 (4:3), 2791 kbps, 25 fps, 0,287 bpp
    • Аудио: MP3 / 2.0 / 44 kHz / 192 kbps /

    General
    Complete name : D:ТорентыYshele.dyxov.avi
    Format : AVI
    Format/Info : Audio Video Interleave
    Format profile : OpenDML
    File size : 1.71 GiB
    Duration : 1h 21mn
    Overall bit rate : 2 997 Kbps
    Writing application : MEncoder SVN-r29352(20090610-gcc4.3.3)
    Writing library : MPlayer

    Video
    ID : 0
    Format : MPEG-4 Visual
    Format profile : Advanced Simple@L5
    Format settings, BVOP : 2
    Format settings, QPel : No
    Format settings, GMC : No warppoints
    Format settings, Matrix : Default (H.263)
    Codec ID : XVID
    Codec ID/Hint : XviD
    Duration : 1h 21mn
    Bit rate : 2 791 Kbps
    Width : 720 pixels
    Height : 540 pixels
    Display aspect ratio : 4:3
    Frame rate : 25.000 fps
    Color space : YUV
    Chroma subsampling : 4:2:0
    Bit depth : 8 bits
    Scan type : Progressive
    Compression mode : Lossy
    Bits/(Pixel*Frame) : 0.287
    Stream size : 1.59 GiB (93%)
    Writing library : XviD 1.2.1 (UTC 2008-12-04)

    Audio
    ID : 1
    Format : MPEG Audio
    Format version : Version 1
    Format profile : Layer 3
    Mode : Joint stereo
    Mode extension : MS Stereo
    Codec ID : 55
    Codec ID/Hint : MP3
    Duration : 1h 21mn
    Bit rate mode : Constant
    Bit rate : 192 Kbps
    Channel(s) : 2 channels
    Sampling rate : 44.1 KHz
    Compression mode : Lossy
    Delay relative to video : 40ms
    Stream size : 112 MiB (6%)
    Alignment : Aligned on interleaves
    Interleave, duration : 26 ms (0.65 video frame)
    Interleave, preload duration : 522 ms
    Сценарий: Сергей Нилов, Александр Проханов
    Оператор: Андрей Вацура
    Композитор: Борис Рычков


    © Оформление by Vetalpb.wtf



  • Скачать Ущелье "духов" через торрент http://i3.imageban.ru/out/2013/07/08/47eaef38056e5845b7f2686f2369fbe7.jpg Скачать фильм Ущелье "духов" через торрент бесплантно в хорошем качестве Описание:О последней военной операции в Афганистане. Командир разведроты Грачев и его бойцы пытаются осмыслить суть этой странной и ... 9.8 10 15
    Info! Золотая раздача, скачанное не засчитывается.
    Торрент: Зарегистрирован [2013-07-08 15:59] · скачан: 247 раз
    Статус: √ проверено
    Размер: 1.71 GB
    Как cкачать? Как скачать Ущелье "духов" через торрент | qTorrent

    28-11-2019 20:33  

    Отключить всю рекламу на сайте

      Дорогой пользователь! Огромная просьба, поблагодарите релизера, оцените раздачу и оставьте свои комментарий, если Вы скачали Ущелье "духов" через торрент бесплатно! Внесите свою лепту в развитие PiratBit!
      Комментировать посты могут только пользователи прошедшие не сложную регистрацию
      Показать сообщения:    

      Ущелье "духов" через торрент
      Скачать бесплатно Ущелье "духов"
      Ущелье "духов" скачать торрент
      Ущелье "духов" смотреть онлайн
      Cкачать фильм Ущелье "духов" бесплатно
      Ущелье "духов" скачать торрент в хорошем качестве
      Ущелье "духов" смотреть онлайн бесплатно в хорошем качестве


      Вы не можете начинать темы
      Вы не можете отвечать на сообщения
      Вы не можете редактировать свои сообщения
      Вы не можете удалять свои сообщения
      Вы не можете голосовать в опросах
      Вы не можете прикреплять файлы к сообщениям
      Вы можете скачивать файлы