новый адрес
Ссылка на приватное зеркало всего за 1$. Внимание количество ограничено!!!

iTunes

1+1

iTunes

мы

iTunes

1

iTunes

Чернобыль

iTunes

Ральф против интернета

Лицензия

ПШазам

Лицензия

Оно 2

Лицензия

30
pack

Вам бонус

ВАЖНО

!!Акция!!

Alien_RageХит недели

RePack

Resident Evil 21

ИГРА 18+

pack

RePack

jed

!!Акция!!

Alien_Rage

RePack

fifa19

RePack

Assassins Creed: Odyssey

RePack

NEED FOR SPEED™ PAYBACK

3 сезон

9 сезон

Бесстыжие 9 сезон

Все сериалы

все сериалы на PB.wtf

RePack

FAR CRY 5
Ребята, катастрофически не хватает 1900р. для оплаты серверов за Октябрь (всвязи с блокировками трафик упал в 3 раза), 1-2р., выручайте.
  

Только представь! / Imagine (Анджей Якимовский) [2012 г., Драма,HDRip,Профессиональное многоголосый"Кинолюкс"] pb.wtf

Только представь! через торрент pb.wtf

Размер: 2.17 GB | Добавлен: 5 лет 1 мес. назад | Торрент скачан:14 раз
Скачать  

08-07-2013 16:57 Только представь! Скачать торрент  

Только представь! / Imagine
Год выпуска: 2012
Страна: Польша, Португалия, Франция, Великобритания / Zjednoczenie Artystów i Rzemieslników, KMBO, Film and Music Entertainment (F&ME)
Жанр: Драма,
Продолжительность: 01:40:56
Перевод: Профессиональный многоголосый(Кинолюкс)

Режиссер: Анджей Якимовский


В ролях: Эдвард Хогг, Александра Мария Лара, Мельхиор Деруе, Дэвид Атракчи, Луиш Лукас, Тереза Мадруга, Джоао Ваз,

Описание: Лиссабонская специализированная клиника для слепых детей с мировой известностью. Ян, их новый педагог по пространственной ориентации, хочет выйти за пределы традиционных рамок обучения и помочь им исследовать их окружение, не чувствуя себя уязвимыми или напуганными. Ян быстро завоевывает их доверие, что побуждает его попробовать поставить перед ними задачи с большим элементом риска. Используя нешаблонные методы, он хочет стимулировать их любопытство и воображение. Когда все заходит слишком далеко, возникает вопрос, насколько реален образ того мира, который Ян внушает своим ученикам? И насколько честен с ними сам Ян?

Качество: HDRip
Формат: AVI
Видео кодек: XviD
Аудио кодек: AC3
Видео: MPEG4, XviD, 720x304 (2.35:1), 24.000 fps, 2 496 Kbps (0.475 bit/pixel)
Аудио: AC-3, 48.0 KHz, 6 ch, 448 Kbps, CBR
Общее
Полное имя : G:\кино\Imagine.2012.HDRip.avi
Формат : AVI
Формат/Информация : Audio Video Interleave
Профиль формата : OpenDML
Размер файла : 2,17 Гбайт
Продолжительность : 1 ч. 45 м.
Общий поток : 2956 Кбит/сек
Программа кодирования : VirtualDubMod 1.5.10.3 | www.virtualdub-fr.org || (build 2550/release)
Библиотека кодирования : VirtualDubMod build 2550/release

Видео
Идентификатор : 0
Формат : MPEG-4 Visual
Профиль формата : Advanced Simple@L5
Параметр BVOP формата : 1
Параметр QPel формата : Нет
Параметр GMC формата : Без точки перехода
Параметр матрицы формата : Default (MPEG)
Идентификатор кодека : XVID
Идентификатор кодека/Подсказка : XviD
Продолжительность : 1 ч. 45 м.
Битрейт : 2496 Кбит/сек
Ширина : 720 пикселей
Высота : 304 пикселя
Соотношение сторон : 2,35:1
Частота кадров : 24,000 кадра/сек
Цветовое пространство : YUV
Субдискретизация насыщенности : 4:2:0
Битовая глубина : 8 бит
Тип развёртки : Прогрессивная
Метод сжатия : С потерями
Бит/(Пиксели*Кадры) : 0.475
Размер потока : 1,84 Гбайт (84%)
Библиотека кодирования : XviD 1.2.1 (UTC 2008-12-04)

Аудио
Идентификатор : 1
Формат : AC-3
Формат/Информация : Audio Coding 3
Расширение режима : CM (complete main)
Параметр Endianness формата : Big
Идентификатор кодека : 2000
Продолжительность : 1 ч. 45 м.
Вид битрейта : Постоянный
Битрейт : 448 Кбит/сек
Каналы : 6 каналов
Расположение каналов : Front: L C R, Side: L R, LFE
Частота : 48,0 КГц
Битовая глубина : 16 бит
Метод сжатия : С потерями
Размер потока : 337 Мбайт (15%)
Выравнивание : Разделение по промежуткам
Продолжительность промежутка : 42 мс. (1,00 видеокадр)
Время предзагрузки промежутка : 500 мс.
pb.wtf



Скачать Только представь! через торрент http://i46.fastpic.ru/big/2013/0708/6e/6e1245894213316c4f01ab1a72de196e.jpg Скачать фильм Только представь! через торрент бесплантно в хорошем качестве Описание: Лиссабонская специализированная клиника для слепых детей с мировой известностью. Ян, их новый педагог по пространственной ... 9.7 10 7
Торрент: Зарегистрирован [2014-10-18 17:27] · скачан: 14 раз
Статус: √ проверено
Размер: 2.17 GB
Как cкачать? Как скачать Только представь! через торрент | qTorrent

% Раздел Тема Автор DL S | L
Фильмы [HD 720p, 1080p] (Хороший звук DUB, MVO) [ 5.27 GB ] Можно только представить / I Can Only Imagine [2018 BDRip 720p] DUB [ R5] bober100 Скачать
2 | 0
Фильмы 2018 [DVDrip, WEB-DLRip, HDrip] (DUB, MVO) [ 746 MB ] Можно только представить / I Can Only Imagine [2018 BDRip] DUB [ R5] bober100 Скачать
1 | 0
Фильмы 2018 [DVDrip, WEB-DLRip, HDrip] (DUB, MVO) [ 1.46 GB ] Можно только представить / I Can Only Imagine [2018 BDRip] DUB [ R5] bober100 Скачать
1 | 0
Фильмы (Blu-ray, BD-Remux, HDDVD) [ 20.52 GB ] Можно только представить / I Can Only Imagine [2018 BD Remux 1080p] DUB [ R5] bober100 Скачать
1 | 0
Фильмы [HD 720p, 1080p] (Хороший звук DUB, MVO) [ 11.17 GB ] Можно только представить / I Can Only Imagine [2018 BDRip 1080p] DUB [ R5] bober100 Скачать
1 | 0
Фильмы 2018 [DVDrip, WEB-DLRip, HDrip] (DUB, MVO) [ 1.46 GB ] Можно только представить / I Can Only Imagine [2018 BDRip] - [] Twi7ter Скачать
3 | 0
Фильмы [HD 720p, 1080p] (Хороший звук DUB, MVO) [ 4.53 GB ] Можно только представить / I Can Only Imagine [2018 BDRip 1080p HEVC ] Мичман37 Скачать
3 | 0


Последний раз редактировалось: coc900 (2014-10-18 17:30), всего редактировалось 2 раз(а)

28-11-2019 20:33  

Отключить всю рекламу на сайте

18-10-2014 17:29 Только представь! Скачать торрент  

Релиз обновлен ! Просьба перекачать торрент файл!pb.wtf



    Дорогой пользователь! Огромная просьба, поблагодарите релизера, оцените раздачу и оставьте свои комментарий, если Вы скачали Только представь! через торрент бесплатно! Внесите свою лепту в развитие PiratBit!
    Комментировать посты могут только пользователи прошедшие не сложную регистрацию
    Показать сообщения:    

    Только представь! через торрент
    Скачать бесплатно Только представь!
    Только представь! скачать торрент
    Только представь! смотреть онлайн
    Cкачать фильм Только представь! бесплатно
    Только представь! скачать торрент в хорошем качестве
    Только представь! смотреть онлайн бесплатно в хорошем качестве


    Вы не можете начинать темы
    Вы не можете отвечать на сообщения
    Вы не можете редактировать свои сообщения
    Вы не можете удалять свои сообщения
    Вы не можете голосовать в опросах
    Вы не можете прикреплять файлы к сообщениям
    Вы можете скачивать файлы