Ссылка на приватное зеркало нашего сайта всего за 1$. Внимание количество ограничено!!!

2 сезон

iTunes

1 сезон

1

iTunes

iTunes

iTunes

1 сезон

RePack

30

ИГРА 18+

pack

ВАЖНО

!!Акция!!

Alien_RageХит недели

RePack

MK11
pack

Забери бонус

RePack

jed

!!Акция!!

Alien_Rage

RePack

fifa19

RePack

Assassins Creed: Odyssey

RePack

NEED FOR SPEED™ PAYBACK

4 сезон

9 сезон

Бесстыжие 9 сезон

Все сериалы

все сериалы на PB.wtf

RePack

FAR CRY 5
  

Хребет дьявола / The Devil's Backbone / El espinazo del diablo (Гильермо Дель Торо / Guillermo del Toro) [2001, Испания / Мексика, Триллер, фэнтези, детектив, BDRip 1080p], DUB + original + sub (Rus) pb.wtf

Хребет дьявола через торрент pb.wtf

Размер: 9.32 GB | Добавлен: 7 лет 3 мес. назад | Торрент скачан:119 раз
Скачать  

08-07-2013 20:10 Хребет дьявола Скачать торрент  

Хребет дьявола
El espinazo del diablo
Год выпуска: 2001
Страны: Испания , Мексика
Жанры: ужасы, драма
Продолжительность: 01:48:26
Перевод: Профессиональный (дублированный)
Субтитры: Russian (UTF-8)

Режиссер: Гильермо дель Торо

В ролях: Мариса Паредес / Marisa Paredes (Carmen), Эдуардо Норьега / Eduardo Noriega (Jacinto), Федерико Луппи / Federico Luppi (Dr. Casares), Фернандо Тилве / Fernando Tielve (Carlos), Иниго Гарсес / Iñigo Garces (Jaime), Ирен Виседо / Irene Visedo (Conchita), Хосе Мануэль Лоренцо / Jose Manuel Lorenzo (Marcelo), Франсиско Маэстре / Francisco Maestre (в титрах: Paco Maestre) (El Puerco)


Описание: Пугающий рассказ о 12-летнем Карлосе, который после смерти отца попадает в школу Санта-Лусии на попечение директрисы Кармен и профессора Касареса. Отец мальчика был мятежником, убитым в сражении против режима Франко. И хотя приют перегружен большим количеством детей, директор школы сочувствующе принимает молодого Карлоса.

Качество: BDRip 1080p
Формат: MKV
Видео кодек: AVC
Аудио кодек: DTS,AC3
Видео: 1920x1080 (16:9), 23.976 fps, AVC, 10.9 Mbps
Аудио1: : AC3, 448 Kbps, 48.0 KHz, 6 ch (Russian)
Аудио #2: DTS, 755 Kbps, 48.0 KHz, 6 ch (Spanish)
Аудио #3: AC3, 224 Kbps, 48.0 KHz, 2 ch (Spanish)

Код:

General
Complete name                    : El.espinazo.del.diablo.2001.BDRip.1080p.mkv
Format                           : Matroska
File size                        : 9.32 GiB
Duration                         : 1h 48mn
Overall bit rate                 : 12.3 Mbps
Movie name                       : El espinazo del diablo (2001) | Release for HDTracker.ru
Encoded date                     : UTC 2010-11-08 13:32:11
Writing application              : mkvmerge v4.0.0 ('The Stars were mine') сборка от Jun  6 2010 16:18:42
Writing library                  : libebml v1.0.0 + libmatroska v1.0.0

Video
ID                               : 1
Format                           : AVC
Format/Info                      : Advanced Video Codec
Format profile                   : High@L4.1
Format settings, CABAC           : Yes
Format settings, ReFrames        : 4 frames
Muxing mode                      : Container profile=Unknown@4.1
Codec ID                         : V_MPEG4/ISO/AVC
Duration                         : 1h 48mn
Bit rate                         : 10.9 Mbps
Width                            : 1 920 pixels
Height                           : 1 080 pixels
Display aspect ratio             : 16:9
Frame rate                       : 23.976 fps
Color space                      : YUV
Chroma subsampling               : 4:2:0
Bit depth                        : 8 bits
Scan type                        : Progressive
Bits/(Pixel*Frame)               : 0.220
Stream size                      : 8.05 GiB (86%)
Title                            : Rip by gh00st
Writing library                  : x264 core 98 r1649 20cbe10
Encoding settings                : cabac=1 / ref=4 / deblock=1:-3:-3 / analyse=0x3:0x133 / me=umh / subme=9 / psy=1 / psy_rd=1.00:0.00 / mixed_ref=1 / me_range=32 / chroma_me=1 / trellis=2 / 8x8dct=1 / cqm=0 / deadzone=21,11 / fast_pskip=0 / chroma_qp_offset=-4 / threads=9 / sliced_threads=0 / nr=0 / decimate=1 / interlaced=0 / constrained_intra=0 / bframes=3 / b_pyramid=2 / b_adapt=2 / b_bias=0 / direct=3 / weightb=1 / weightp=2 / keyint=250 / keyint_min=25 / scenecut=40 / intra_refresh=0 / rc_lookahead=40 / rc=2pass / mbtree=1 / bitrate=10934 / ratetol=1.0 / qcomp=0.60 / qpmin=10 / qpmax=51 / qpstep=4 / cplxblur=20.0 / qblur=0.5 / ip_ratio=1.40 / aq=1:1.00

Audio #1
ID                               : 2
Format                           : AC-3
Format/Info                      : Audio Coding 3
Mode extension                   : CM (complete main)
Codec ID                         : A_AC3
Duration                         : 1h 48mn
Bit rate mode                    : Constant
Bit rate                         : 448 Kbps
Channel(s)                       : 6 channels
Channel positions                : Front: L C R, Side: L R, LFE
Sampling rate                    : 48.0 KHz
Bit depth                        : 16 bits
Stream size                      : 347 MiB (4%)
Title                            : AC3 5.1 @ 448 kbps - Дубляж
Language                         : Russian

Audio #2
ID                               : 3
Format                           : DTS
Format/Info                      : Digital Theater Systems
Codec ID                         : A_DTS
Duration                         : 1h 48mn
Bit rate mode                    : Constant
Bit rate                         : 755 Kbps
Channel(s)                       : 6 channels
Channel positions                : Front: L C R, Side: L R, LFE
Sampling rate                    : 48.0 KHz
Bit depth                        : 16 bits
Stream size                      : 585 MiB (6%)
Title                            : DTS 5.1 @ 755 kbps - Original
Language                         : Spanish

Audio #3
ID                               : 4
Format                           : AC-3
Format/Info                      : Audio Coding 3
Mode extension                   : CM (complete main)
Codec ID                         : A_AC3
Duration                         : 1h 48mn
Bit rate mode                    : Constant
Bit rate                         : 224 Kbps
Channel(s)                       : 2 channels
Channel positions                : Front: L R
Sampling rate                    : 48.0 KHz
Bit depth                        : 16 bits
Stream size                      : 174 MiB (2%)
Title                            : Commentary with Director Guillermo del Toro
Language                         : Spanish

Text
ID                               : 5
Format                           : UTF-8
Codec ID                         : S_TEXT/UTF8
Codec ID/Info                    : UTF-8 Plain Text
Language                         : Russian

Menu
00:00:00.000                     : :Chapter 01
00:06:35.103                     : :Chapter 02
00:17:02.938                     : :Chapter 03
00:23:27.531                     : :Chapter 04
00:31:20.211                     : :Chapter 05
00:40:14.745                     : :Chapter 06
00:47:09.243                     : :Chapter 07
00:53:55.982                     : :Chapter 08
00:59:17.053                     : :Chapter 09
01:05:34.347                     : :Chapter 10
01:12:35.476                     : :Chapter 11
01:17:08.290                     : :Chapter 12
01:23:15.699                     : :Chapter 13
01:31:02.915                     : :Chapter 14
01:43:40.005                     : :Chapter 15

pb.wtf



Скачать Хребет дьявола через торрент http://i48.fastpic.ru/big/2013/0708/a5/d56ff6ff15c6141c808b65734e1515a5.png Скачать фильм Хребет дьявола через торрент бесплантно в хорошем качестве Описание: Пугающий рассказ о 12-летнем Карлосе, который после смерти отца попадает в школу Санта-Лусии на попечение директрисы Кармен и ... 9 10 7
Info! Золотая раздача, скачанное не засчитывается.
Торрент: Зарегистрирован [2013-07-08 20:10] · скачан: 119 раз
Статус: √ проверено
Размер: 9.32 GB
Как cкачать? Как скачать Хребет дьявола через торрент | qTorrent

28-11-2019 20:33  

Отключить всю рекламу на сайте

    Дорогой пользователь! Огромная просьба, поблагодарите релизера, оцените раздачу и оставьте свои комментарий, если Вы скачали Хребет дьявола через торрент бесплатно! Внесите свою лепту в развитие PiratBit!
    Комментировать посты могут только пользователи прошедшие не сложную регистрацию
    Показать сообщения:    

    Хребет дьявола через торрент
    Скачать бесплатно Хребет дьявола
    Хребет дьявола скачать торрент
    Хребет дьявола смотреть онлайн
    Cкачать фильм Хребет дьявола бесплатно
    Хребет дьявола скачать торрент в хорошем качестве
    Хребет дьявола смотреть онлайн бесплатно в хорошем качестве


    Вы не можете начинать темы
    Вы не можете отвечать на сообщения
    Вы не можете редактировать свои сообщения
    Вы не можете удалять свои сообщения
    Вы не можете голосовать в опросах
    Вы не можете прикреплять файлы к сообщениям
    Вы можете скачивать файлы