2 сезон

iTunes

MVO

1

2 сезон

iTunes

iTunes

1 сезон

RePack

30

Новинка

ВАЖНО

ИГРА 18+

pack

RePack

MK11
pack

Легкие деньги

RePack

jed

RePack

fifa19

RePack

RDR2

RePack

NEED FOR SPEED™ PAYBACK

4 сезон

9 сезон

Бесстыжие 9 сезон

Все сериалы

все сериалы на PB.wtf

RePack

FAR CRY 5

Anonymous, доброй ночи, мы не успеваем собрать деньги на оплату серверов за декабрь и январь, помогите нам пожалуйста в это трудное время. В качестве благодарности мы отключим Вам всю рекламу на сайте (укажите свой ник в строку Ваше имя)!

×
  
Magnet ссылка

Город порока / Broken City (Алленс Хьюз) [2013 г., Триллер, драма, криминал, BDRip-AVC, Профессиональный (многоголосый закадровый)] pb.wtf

Город порока через торрент pb.wtf

Размер: 2.38 GB | Добавлен: 7 лет 6 мес. назад | Торрент скачан:1036 раз
Скачать  

11-07-2013 14:56 Город порока Скачать торрент  

Город порока / Broken City
  • Год выпуска: 2013
  • Страна: США / Regency Enterprises, Emmett/Furla Films, Black Bear Pictures
  • Жанр: Триллер, драма, криминал
  • Продолжительность: 01:48:56
  • Перевод: Профессиональный (многоголосый закадровый)
  • Субтитры: Английские, английские (SDH) |отключаемые|

  • Режиссер: Алленс Хьюз
  • Продюссер: Ремингтон Чейз, Рэндолл Эмметт, Джордж Фурла
  • Сценарий: Брайан Такер

  • Бюджет: $35 000 000




  • В ролях: Марк Уолберг, Расселл Кроу, Кэтрин Зета-Джонс, Бэрри Пеппер, Кайл Чандлер, Натали Мартинез, Джеффри Райт, Алона Тал, Майкл Бич, Джеймс Рэнсон

  • Описание: История бывшего полицейского Билли Таггерта. Восемь лет назад он стрелял в 16-летнего подростка, за что был уволен из полиции. Теперь Таггерт работает частным детективом, которого нанимает мэр, чтобы тот разузнал, не изменяет ли ему жена. Однако расследование адюльтера супруги мэра выливается в настоящий скандал. Человек, с которым жена мэра изменяла мужу, убит, а на поверхность всплывает нехорошая история с недвижимостью.

  • Качество: BDRip-AVC[Broken City 2013 1080p BluRay Remux AVC DTS HD MA 5 1 BluEvo]
  • Формат: MKV
  • Видео кодек: H.264
  • Аудио кодек: AC3
  • Видео: H.264, 1280x532 (2.40:1), 23,976 fps, 2112 Кbps, 0.129 bit/pixel
  • Аудио#1: 48 kHz, AC3 Dolby Digital, 3/2 (L,C,R,l,r) + LFE ch, 640.00 kbps | RUS
  • Аудио#2: 48 kHz, AC3 Dolby Digital, 3/2 (L,C,R,l,r) + LFE ch, 384.00 kbps | ENG






    D:Gorod.Poroka.2013.P.BDRip
    General
    Unique ID : 224607283357275888736340209180914163208 (0xA8F9CA0DE52EED8F9326BA2E47371E08)
    Complete name : D:Gorod.Poroka.2013.P.BDRip.
    Format : Matroska
    Format version : Version 2
    File size : 2.38 GiB
    Duration : 1h 48mn
    Overall bit rate : 3 136 Kbps
    Movie name :
    Encoded date : UTC 2013-07-10 18:38:21
    Writing application : mkvmerge v5.9.0 ('On The Loose') built on Dec 15 2012 16:39:58
    Writing library : libebml v1.3.0 + libmatroska v1.4.0
    Video #1
    ID : 1
    Format : AVC
    Format/Info : Advanced Video Codec
    Format profile : High@L4.1
    Format settings, CABAC : Yes
    Format settings, ReFrames : 10 frames
    Codec ID : V_MPEG4/ISO/AVC
    Duration : 1h 48mn
    Bit rate : 2 112 Kbps
    Width : 1 280 pixels
    Height : 532 pixels
    Display aspect ratio : 2.40:1
    Frame rate : 23.976 fps
    Color space : YUV
    Chroma subsampling : 4:2:0
    Bit depth : 8 bits
    Scan type : Progressive
    Bits/(Pixel*Frame) : 0.129
    Stream size : 1.56 GiB (65%)
    Title : Broken City
    Writing library : x264 core 125 r2208 d9d2288
    Encoding settings : cabac=1 / ref=10 / deblock=1:-2:-1 / analyse=0x3:0x133 / me=umh / subme=11 / psy=1 / psy_rd=1.03:0.03 / mixed_ref=1 / me_range=32 / chroma_me=1 / trellis=2 / 8x8dct=1 / cqm=0 / deadzone=21,11 / fast_pskip=0 / chroma_qp_offset=-3 / threads=6 / lookahead_threads=1 / sliced_threads=0 / nr=0 / decimate=1 / interlaced=0 / bluray_compat=0 / constrained_intra=0 / bframes=11 / b_pyramid=2 / b_adapt=2 / b_bias=0 / direct=3 / weightb=1 / open_gop=0 / weightp=2 / keyint=240 / keyint_min=23 / scenecut=40 / intra_refresh=0 / rc_lookahead=100 / rc=2pass / mbtree=1 / bitrate=2112 / ratetol=1.0 / qcomp=0.70 / qpmin=0 / qpmax=69 / qpstep=4 / cplxblur=20.0 / qblur=0.5 / vbv_maxrate=20000 / vbv_bufsize=22500 / nal_hrd=none / ip_ratio=1.35 / aq=1:0.80
    Language : English
    Default : Yes
    Forced : No
    Audio #2
    ID : 2
    Format : AC-3
    Format/Info : Audio Coding 3
    Mode extension : CM (complete main)
    Format settings, Endianness : Big
    Codec ID : A_AC3
    Duration : 1h 48mn
    Bit rate mode : Constant
    Bit rate : 640 Kbps
    Channel(s) : 6 channels
    Channel positions : Front: L C R, Side: L R, LFE
    Sampling rate : 48.0 KHz
    Bit depth : 16 bits
    Compression mode : Lossy
    Stream size : 497 MiB (20%)
    Title : MVO | DD 5.1 @ 384 kbps
    Language : Russian
    Default : Yes
    Forced : Yes
    Audio #3
    ID : 3
    Format : AC-3
    Format/Info : Audio Coding 3
    Mode extension : CM (complete main)
    Format settings, Endianness : Big
    Codec ID : A_AC3
    Duration : 1h 48mn
    Bit rate mode : Constant
    Bit rate : 384 Kbps
    Channel(s) : 6 channels
    Channel positions : Front: L C R, Side: L R, LFE
    Sampling rate : 48.0 KHz
    Bit depth : 16 bits
    Compression mode : Lossy
    Stream size : 298 MiB (12%)
    Title : Original | DD 5.1 @ 384 kbps
    Language : English
    Default : No
    Forced : No
    Text #4
    ID : 4
    Format : UTF-8
    Codec ID : S_TEXT/UTF8
    Codec ID/Info : UTF-8 Plain Text
    Language : English
    Default : No
    Forced : No
    Text #5
    ID : 5
    Format : UTF-8
    Codec ID : S_TEXT/UTF8
    Codec ID/Info : UTF-8 Plain Text
    Title : SDH
    Language : English
    Default : No

    Forced : No


    Город порока скачать торрент


    pb.wtf



  • Скачать Город порока через торрент http://pic.kartinco.top/images/3/vbsvxqjsjo.png Скачать фильм Город порока через торрент бесплантно в хорошем качестве Описание: История бывшего полицейского Билли Таггерта. Восемь лет назад он стрелял в 16-летнего подростка, за что был уволен из полиции. ... 9.5 10 30
    Info! Золотая раздача, скачанное не засчитывается.
    Торрент: Зарегистрирован [2013-07-11 14:56] · скачан: 1 036 раз
    Статус: T временная
    Размер: 2.38 GB
    Как cкачать? Как скачать Город порока через торрент | UTorrent

    % Раздел Тема Автор DL S | L
    Фильмы 2013 [DVDrip, WEB-DLRip, HDrip] [ 746 MB ] Город порока / Broken City [2013 BDRip-AVC] sokol_ok Скачать
    4 | 0
    Фильмы 2013 [DVDrip, WEB-DLRip, HDrip] [ 2.12 GB ] Город порока / Broken City [2013 BDRip-AVC] sokol_ok Скачать
    4 | 0
    Фильмы 2013 [DVDrip, WEB-DLRip, HDrip] [ 1.5 GB ] Город порока / Broken City [2013 BDRip-AVC] sokol_ok Скачать
    8 | 0
    Фильмы 2013 [DVDrip, WEB-DLRip, HDrip] [ 2.18 GB ] Город порока / Broken City [2013 BDRip] 2x[Dub] killermax2013 Скачать
    1 | 0
    Фильмы [HD 720p, 1080p] (Хороший звук DUB, MVO) [ 5.05 GB ] Город порока / Broken City [2013 BDRip 720p от _denis_100 / NNNB] MVO + 2xAVO + Original + Sub _denis_100 Скачать
    1 | 0
    Фильмы с авторской озвучкой [ 2.18 GB ] Город порока / Broken City [2013 BDRip]AVO Ворон Скачать
    1 | 0
    Фильмы (Blu-ray, BD-Remux, HDDVD) [ 29.22 GB ] Город порока / Broken City [2013 BDRemux 1080p] [US Transfer] VO + Original + Subs Ворон Скачать
    1 | 0


    Последний раз редактировалось: МАКС1 (2013-08-11 22:50), всего редактировалось 1 раз

    28-11-2019 20:33  

    Отключить всю рекламу на сайте

    11-07-2013 16:26 Город порока Скачать торрент  

    на последнем скрине жирный Бондарчук. p s мне 36 лет))))pb.wtf



    11-07-2013 16:27 Город порока Скачать торрент  

    ОН похож на него только если лысиной.pb.wtf



    11-07-2013 16:28 Город порока Скачать торрент  

    spec-100 писал(а):

    ОН похож на него только если лысиной.

    все лысые-Бондарчуки))pb.wtf



      Дорогой пользователь! Огромная просьба, поблагодарите релизера, оцените раздачу и оставьте свои комментарий, если Вы скачали Город порока через торрент бесплатно! Внесите свою лепту в развитие PiratBit!
      Комментировать посты могут только пользователи прошедшие не сложную регистрацию
      Показать сообщения:    

      Город порока через торрент
      Скачать бесплатно Город порока
      Город порока скачать торрент
      Город порока смотреть онлайн
      Cкачать фильм Город порока бесплатно
      Город порока скачать торрент в хорошем качестве
      Город порока смотреть онлайн бесплатно в хорошем качестве


      Вы не можете начинать темы
      Вы не можете отвечать на сообщения
      Вы не можете редактировать свои сообщения
      Вы не можете удалять свои сообщения
      Вы не можете голосовать в опросах
      Вы не можете прикреплять файлы к сообщениям
      Вы можете скачивать файлы