1 сезон

1 сезон

iTunes

1

КиноПоиск HD

Кинопоиск HD

iTunes

13

1 сезон

RePack

30

Новинка

ВАЖНО

ИГРА 18+

pack

RePack

MK11
pack

Легкие деньги

RePack

jed

RePack

fifa19

RePack

RDR2

RePack

NEED FOR SPEED™ PAYBACK

4 сезон

9 сезон

Бесстыжие 9 сезон

Все сериалы

все сериалы на PB.wtf

RePack

FAR CRY 5
  
Magnet ссылка

Семья Робинзонов / Остров надежды / Stranded (Чарльз Бисон) [2002 г., Приключения, DVDRip, MVO (закадровый)] pb.wtf

Семья Робинзонов через торрент pb.wtf

Размер: 2.05 GB | Добавлен: 7 лет 9 мес. назад | Торрент скачан:89 раз
Скачать  

11-07-2013 15:51 Семья Робинзонов Скачать торрент  

Семья Робинзонов / Остров надежды / Stranded
Год выпуска: 2002
Страна: США
Жанр: Приключения
Продолжительность: 02:52:36
Перевод: Профессиональный многоголосый (закадровый)

Режиссер: Чарльз Бисон
Продюссер: Дайсон Ловелл, Роберт Холми ст., Чарльз Сэлмон
Сценарий: Йохан Дэвид Уайсс, Антон Дизер, Грег Диннер

Премьера в мире: 12 января 2002



В ролях: Лайам Каннингэм, Брана Байич, Роджер Аллам, Джесси Спенсер, Нэил Ньюбон, Эндрю Ли Поттс, Чарли Лукас, Ридэд Лардпанна, Дженна Харрисон, Эмма Пирсон, Бонни Райт

Описание: Начало 19-го века. Корабль, на котором английскую семью по фамилии Робинзон, отца, мать и четверых детей, перевозили на поселение в Австралию, попал в жестокий шторм у берегов Индонезийского архипелага. Оказавшись во власти океанской стихии, Робинзоны доверили свою судьбу всемогущему Провидению.

И через несколько дней потерявшее управление судно прибило к берегу цветущего острова. Робинзоны сгрузили с разбитого корабля провизию, а посреди джунглей нашли источник свежей воды. Прошли месяцы. Робинзоны счастливы в своем тропическом раю, ставшем их домом. Они верят, что могут справиться с любыми испытаниями.

Но на острове обнаруживаются следы пребывания таинственного племени, а на горизонте появляется корабль с кровожадными пиратами...

Качество: DVDRip
Формат: AVI
Видео кодек: DivX
Аудио кодек: AC3
Видео: 640x464 (1.38:1), 25 fps, DivX Codec 5.2.1 beta ~1505 kbps avg, 0.20 bit/pixel
Аудио: 48 kHz, AC3 Dolby Digital, 2/0 (L,R) ch, ~192.00 kbps avg






Общее
Полное имя : D:На дискеСемья Робинзонов (2002) DVDRip.avi
Формат : AVI
Формат/Информация : Audio Video Interleave
Профиль формата : OpenDML
Размер файла : 2,05 Гбайт
Продолжительность : 2 ч. 52 м.
Общий поток : 1704 Кбит/сек
Программа кодирования : VirtualDubMod 1.5.10.2 (build 2542/release)
Библиотека кодирования : VirtualDubMod build 2542/release

Видео
Идентификатор : 0
Формат : MPEG-4 Visual
Параметр BVOP формата : 1
Параметр QPel формата : Нет
Параметр GMC формата : Без точки перехода
Параметр матрицы формата : Default (MPEG)
Режим смешивания : Сжатый битовый поток
Идентификатор кодека : DX50
Идентификатор кодека/Подсказка : DivX 5
Продолжительность : 2 ч. 52 м.
Битрейт : 1500 Кбит/сек
Ширина : 640 пикселей
Высота : 464 пикселя
Соотношение сторон : 1,379
Частота кадров : 25,000 кадров/сек
Цветовое пространство : YUV
Субдискретизация насыщенности : 4:2:0
Битовая глубина : 8 бит
Тип развёртки : Прогрессивная
Метод сжатия : С потерями
Бит/(Пиксели*Кадры) : 0.202
Размер потока : 1,81 Гбайт (88%)
Библиотека кодирования : DivX 5.2.1 Beta (UTC 2004-09-08)

Аудио
Идентификатор : 1
Формат : AC-3
Формат/Информация : Audio Coding 3
Расширение режима : CM (complete main)
Параметр Endianness формата : Big
Идентификатор кодека : 2000
Продолжительность : 2 ч. 52 м.
Вид битрейта : Постоянный
Битрейт : 192 Кбит/сек
Каналы : 2 канала
Расположение каналов : Front: L R
Частота : 48,0 КГц
Битовая глубина : 16 бит
Метод сжатия : С потерями
Размер потока : 237 Мбайт (11%)
Выравнивание : Разделение по промежуткам
Продолжительность промежутка : 40 мс. (1,00 видеокадр)
Время предзагрузки промежутка : 500 мс.
pb.wtf



Скачать Семья Робинзонов через торрент http://i4.imageban.ru/out/2013/07/11/c2d1fec8a0a9c206258c58166c02a624.jpg Скачать фильм Семья Робинзонов через торрент бесплантно в хорошем качестве Описание: Начало 19-го века. Корабль, на котором английскую семью по фамилии Робинзон, отца, мать и четверых детей, перевозили на поселение ... 9.2 10 17
Info! Золотая раздача, скачанное не засчитывается.
Торрент: Зарегистрирован [2013-07-11 15:51] · скачан: 89 раз
Статус: √ проверено
Размер: 2.05 GB
Как cкачать? Как скачать Семья Робинзонов через торрент | UTorrent

28-11-2019 20:33  

Отключить всю рекламу на сайте

12-07-2013 20:57 Семья Робинзонов Скачать торрент  

Жаль качество подвело pb.wtf



    Дорогой пользователь! Огромная просьба, поблагодарите релизера, оцените раздачу и оставьте свои комментарий, если Вы скачали Семья Робинзонов через торрент бесплатно! Внесите свою лепту в развитие PiratBit!
    Комментировать посты могут только пользователи прошедшие не сложную регистрацию
    Показать сообщения:    

    Семья Робинзонов через торрент
    Скачать бесплатно Семья Робинзонов
    Семья Робинзонов скачать торрент
    Семья Робинзонов смотреть онлайн
    Cкачать фильм Семья Робинзонов бесплатно
    Семья Робинзонов скачать торрент в хорошем качестве
    Семья Робинзонов смотреть онлайн бесплатно в хорошем качестве


    Вы не можете начинать темы
    Вы не можете отвечать на сообщения
    Вы не можете редактировать свои сообщения
    Вы не можете удалять свои сообщения
    Вы не можете голосовать в опросах
    Вы не можете прикреплять файлы к сообщениям
    Вы можете скачивать файлы