Ссылка на приватное зеркало нашего сайта всего за 1$. Внимание количество ограничено!!!

2 сезон

iTunes

1 сезон

1

2 сезон

2 сезон

iTunes

1 сезон

RePack

30

Ultimate

ВАЖНО

ИГРА 18+

pack

RePack

MK11
pack

Забери бонус

RePack

jed

!!Акция!!

Alien_Rage

RePack

fifa19

RePack

Assassins Creed: Odyssey

RePack

NEED FOR SPEED™ PAYBACK

4 сезон

9 сезон

Бесстыжие 9 сезон

Все сериалы

все сериалы на PB.wtf

RePack

FAR CRY 5
  

Компаньоны / Franklin & Bash / Сезон: 03 / серии: 01-10 из (10) (Билл Кребс, Билл Чеис) [2013, комедия, криминал, WEB-DLRip] [MVO] (To4ka) pb.wtf

Компаньоны через торрент pb.wtf

Размер: 6.76 GB | Добавлен: 6 лет 3 мес. назад | Торрент скачан:23 раза
Скачать  

12-07-2013 09:14 Компаньоны Скачать торрент  



Компаньоны / Franklin & Bash

Год выпуска: 2013
Страна: США | TNT
Жанр: комедия, криминал
Продолжительность: ~ 42 минуты
Перевод: Любительский (многоголосый, закадровый) - To4ka
Субтитры: Нет
Режиссёры: Джейсон Энслер, Эндрю Флеминг, Стив Робин
Сценарий: Билл Кребс, Билл Чеис, Кевин Фоллс
В ролях: Марк-Пол Госселаар, Брекин Мейер, Рид Даймонд, Дэна Дэвис, Кумэйл Нанджиани, Малкольм МакДауэлл, Гарсель Бове, Стефани Карпентьери, Клэр Коффи, Кристина Валенсьяга и др.
Описание: Два молодых, уличных адвоката, после выигрыша крупного дела над легендарной юридической фирмой были приняты на работу её основателем, однако из-за его неэтичного поведения адвокаты постоянно оказываются в неприятностях.
Качество: WEB-DLRip
Формат: AVI
Видео кодек: XviD
Аудио кодек: MP3
Видео: 720x400 (16:9), 23.976 fps, ~1200 kbps, ~0.170 bit/pixel
Аудио Rus: 48 kHz, 2 ch, ~128 kbps |To4ka|
Аудио Eng: 48 kHz, 2 ch, ~128 kbps |Original|

Озвучка:
Александр Нелюбин, Александр Галушко, Ирина Грачева и Марина Комчарукова
Перевод: Оксана Графутко
/ Сэмпл / ImDB / Кинопоиск
Общее
Формат : AVI
Формат/Информация : Audio Video Interleave
Размер файла : 450 Мбайт
Продолжительность : 42 м.
Общий поток : 1496 Кбит/сек
Программа кодирования : VirtualDubModRus 1.5.10.2 (build 2542/release)
Библиотека кодирования : VirtualDubMod build 2542/release
Видео
Идентификатор : 0
Формат : MPEG-4 Visual
Профиль формата : Advanced Simple@L5
Параметр BVOP формата : 1
Параметр QPel формата : Нет
Параметр GMC формата : Без точки перехода
Параметр матрицы формата : Выборочная
Идентификатор кодека : XVID
Идентификатор кодека/Подсказка : XviD
Продолжительность : 42 м.
Битрейт : 1226 Кбит/сек
Ширина : 720 пикселей
Высота : 400 пикселей
Соотношение сторон : 16:9
Частота кадров : 23,976 кадра/сек
Цветовое пространство : YUV
Субдискретизация насыщенности : 4:2:0
Битовая глубина : 8 бит
Тип развёртки : Прогрессивная
Метод сжатия : С потерями
Бит/(Пиксели*Кадры) : 0.178
Размер потока : 369 Мбайт (82%)
Библиотека кодирования : XviD 73
Аудио #1
Идентификатор : 1
Формат : MPEG Audio
Версия формата : Version 1
Профиль формата : Layer 3
Режим : Joint stereo
Расширение режима : MS Stereo
Идентификатор кодека : 55
Идентификатор кодека/Подсказка : MP3
Продолжительность : 42 м.
Вид битрейта : Постоянный
Битрейт : 128 Кбит/сек
Каналы : 2 канала
Частота : 48,0 КГц
Метод сжатия : С потерями
Размер потока : 38,5 Мбайт (9%)
Выравнивание : Соединение по промежуткам
Продолжительность промежутка : 42 мс. (1,00 видеокадр)
Время предзагрузки промежутка : 504 мс.
Аудио #2
Идентификатор : 2
Формат : MPEG Audio
Версия формата : Version 1
Профиль формата : Layer 3
Режим : Joint stereo
Расширение режима : MS Stereo
Идентификатор кодека : 55
Идентификатор кодека/Подсказка : MP3
Продолжительность : 42 м.
Вид битрейта : Постоянный
Битрейт : 128 Кбит/сек
Каналы : 2 канала
Частота : 48,0 КГц
Метод сжатия : С потерями
Размер потока : 38,5 Мбайт (9%)
Выравнивание : Соединение по промежуткам
Продолжительность промежутка : 42 мс. (1,00 видеокадр)
Время предзагрузки промежутка : 504 мс.
Внимание! Раздача ведётся путём добавления новых серий; при каждом добавлении создётся новый торрент. Чтобы начать докачку новой серии, пользователям необходимо сделать следующее:Остановить скачивание.
Удалить старый торрент у себя из клиента (старые серии удалять не надо).
Скачать новый торрент и запустить его у себя в клиенте вместо старого, при этом указать клиенту путь в старую папку куда и должно происходить скачивание новых серий.Ваш клиент при этом должен произвести хеширование (проверку) старой папки (если не производит сам - помогите ему сделать это), и будет докачивать только те серии которых у вас ещё нет. Старые серии при этом не удаляются, а продолжают раздаваться!
Eсли вы уже удалили старые серии, то предотвратить повторную закачку старых серий можно, отжав галочку в соответсвующих местах при запуске нового торрента. По возможности, желательно не удалять старые серии как можно дольше чтобы релизёр не столько продолжал раздавать старые серии, а смог сконцентрироваться на новых.
pb.wtf



Скачать Компаньоны через торрент http://i47.fastpic.ru/big/2013/0710/f2/9d6dca0c290bf8c31d0cd323913735f2.jpg Скачать фильм Компаньоны через торрент бесплантно в хорошем качестве Описание: Два молодых, уличных адвоката, после выигрыша крупного дела над легендарной юридической фирмой были приняты на работу её ... 10 10 2
Info! Золотая раздача, скачанное не засчитывается.
Торрент: Зарегистрирован [2014-08-20 19:04] · скачан: 23 раз
Статус: √ проверено
Размер: 6.76 GB
Как cкачать? Как скачать Компаньоны через торрент | qTorrent



Последний раз редактировалось: killermax2013 (2014-08-20 19:04), всего редактировалось 2 раз(а)

28-11-2019 20:33  

Отключить всю рекламу на сайте

30-07-2013 18:18 Компаньоны Скачать торрент  

добавлены 2-3-я серии!pb.wtf



07-08-2013 19:45 Компаньоны Скачать торрент  

4-я серия!pb.wtf



20-08-2014 19:04 Компаньоны Скачать торрент  

добавлены все серииpb.wtf



    Дорогой пользователь! Огромная просьба, поблагодарите релизера, оцените раздачу и оставьте свои комментарий, если Вы скачали Компаньоны через торрент бесплатно! Внесите свою лепту в развитие PiratBit!
    Комментировать посты могут только пользователи прошедшие не сложную регистрацию
    Показать сообщения:    

    Компаньоны через торрент
    Скачать бесплатно Компаньоны
    Компаньоны скачать торрент
    Компаньоны смотреть онлайн
    Cкачать фильм Компаньоны бесплатно
    Компаньоны скачать торрент в хорошем качестве
    Компаньоны смотреть онлайн бесплатно в хорошем качестве


    Вы не можете начинать темы
    Вы не можете отвечать на сообщения
    Вы не можете редактировать свои сообщения
    Вы не можете удалять свои сообщения
    Вы не можете голосовать в опросах
    Вы не можете прикреплять файлы к сообщениям
    Вы можете скачивать файлы