2 сезон

iTunes

1 сезон

1

iTunes

iTunes

iTunes

1 сезон

RePack

30

ИГРА 18+

pack

ВАЖНО

!!Акция!!

Alien_RageХит недели

RePack

MK11
pack

Забери бонус

RePack

jed

!!Акция!!

Alien_Rage

RePack

fifa19

RePack

Assassins Creed: Odyssey

RePack

NEED FOR SPEED™ PAYBACK

4 сезон

9 сезон

Бесстыжие 9 сезон

Все сериалы

все сериалы на PB.wtf

RePack

FAR CRY 5
  

Валгалла: Сага о викинге / Valhalla Rising (Николас Виндинг Рефн) [2009 г., фэнтези, боевик, драма, приключения, BDRip 720p, MVO, лицензия] pb.wtf

Валгалла: Сага о викинге через торрент pb.wtf

Размер: 6.01 GB | Добавлен: 7 лет 3 мес. назад | Торрент скачан:195 раз
Скачать  

12-07-2013 09:42 Валгалла: Сага о викинге Скачать торрент  

Валгалла: Сага о викинге / Valhalla Rising
Год выпуска: 2009
Страна: Дания, Великобритания
Жанр: фэнтези, боевик, драма, приключения,
Продолжительность: 01:32:44
Перевод: Профессиональный многоголосый, Лицензия
Субтитры: русские («CP-DIGITAL»), русские (по переводу Строева), английские

Режиссер: Николас Виндинг Рефн
Продюссер: Джонни Андерсен, Хенрик Данструп, Бо Эрхардт
Сценарий: Рой Якобсен, Мэттью Рид, Николас Виндинг Рефн

Бюджет: £4 000 000
Премьера в мире: 4 сентября 2009




В ролях: Мадс Миккельсен, Маартен Стивен, Гордон Браун, Эндрю Флэнеган, Гари Льюис, Гари МакКормак, Александр Мортон, Джэми Сивз, Ивэн Стюарт, Мэтью Заяц,

Описание: 1000 год нашей эры. Немой воин по прозвищу Одноглазый, вырывается из 10-летнего рабства. Сурово расправившись со своими мучителями, он вскоре встречает викингов, с которыми направляется в Иерусалим. По пути следования путешественники переживают страшный шторм, затем их судно попадает в необычный туман. Выбравшись из непроглядной пелены, викинги оказываются около неведомых земель…

Качество: BDRip 720p
Формат: MKV
Видео кодек: H.264
Аудио кодек: DTS

Видео: 1280x 546 (2,35:1),23.976 fps,MPEG4 Video (H264) ~ 4565 Kbps (0.272 bit/pixel)

Аудио#1: русский: 48 kHz, DTS, 3/2 (L,C,R,l,r) + LFE ch, ~1510.00 kbps avg | |Многоголосый, закадровый| («CP-DIGITAL»)
Аудио#2: русский: 48 kHz, DTS, 3/2 (L,C,R,l,r) + LFE ch, ~1509.00 kbps avg | |Одноголосый закадровый, Д. Строев|
Аудио#3:английский: 48 kHz, DTS, 3/2 (L,C,R,l,r) + LFE ch, ~1509.00 kbps avg Оригинал




Общее
Уникальный идентификатор : 226897966348980624751791430408298454158 (0xAAB2F57207A20DB3935E41A9476E5C8E)
Полное имя : D:Valhalla Rising 720p .mkv
Формат : Matroska
Версия формата : Version 2
Размер файла : 6,01 Гбайт
Продолжительность : 1 ч. 32 м.
Общий поток : 9277 Кбит/сек
Дата кодирования : UTC 2013-07-12 08:56:03
Программа кодирования : mkvmerge v4.4.0 ('Die Wiederkehr') сборка от Oct 31 2010 21:52:48
Библиотека кодирования : libebml v1.0.0 + libmatroska v1.0.0

Видео
Идентификатор : 1
Формат : AVC
Формат/Информация : Advanced Video Codec
Профиль формата : High@L4.1
Параметр CABAC формата : Да
Параметр ReFrames формата : 11 кадров
Режим смешивания : Header stripping
Идентификатор кодека : V_MPEG4/ISO/AVC
Продолжительность : 1 ч. 32 м.
Битрейт : 4565 Кбит/сек
Ширина : 1280 пикселей
Высота : 546 пикселей
Соотношение сторон : 2,35:1
Режим частоты кадров : Постоянный
Частота кадров : 23,976 кадра/сек
Цветовое пространство : YUV
Субдискретизация насыщенности : 4:2:0
Битовая глубина : 8 бит
Тип развёртки : Прогрессивная
Бит/(Пиксели*Кадры) : 0.272
Размер потока : 2,96 Гбайт (49%)
Библиотека кодирования : x264 core 125 r2208kMod d9d2288
Настройки программы : cabac=1 / ref=11 / deblock=1:-3:-3 / analyse=0x3:0x113 / me=umh / subme=11 / psy=1 / fade_compensate=0.00 / psy_rd=1.10:0.20 / mixed_ref=1 / me_range=16 / chroma_me=1 / trellis=2 / 8x8dct=1 / cqm=0 / deadzone=21,11 / fast_pskip=0 / chroma_qp_offset=-3 / threads=6 / lookahead_threads=1 / sliced_threads=0 / nr=0 / decimate=0 / interlaced=0 / bluray_compat=0 / constrained_intra=0 / bframes=8 / b_pyramid=2 / b_adapt=2 / b_bias=0 / direct=3 / weightb=1 / open_gop=0 / weightp=2 / keyint=250 / keyint_min=23 / scenecut=40 / intra_refresh=0 / rc_lookahead=40 / rc=crf / mbtree=1 / crf=17.0000 / qcomp=0.80 / qpmin=0 / qpmax=69 / qpstep=4 / ip_ratio=1.30 / aq=1:1.10
Язык : English
Default : Нет
Forced : Нет

Аудио #1
Идентификатор : 2
Формат : DTS
Формат/Информация : Digital Theater Systems
Режим : 16
Параметр Endianness формата : Big
Режим смешивания : Header stripping
Идентификатор кодека : A_DTS
Продолжительность : 1 ч. 32 м.
Вид битрейта : Постоянный
Битрейт : 1510 Кбит/сек
Каналы : 6 каналов
Расположение каналов : Front: L C R, Side: L R, LFE
Частота : 48,0 КГц
Битовая глубина : 24 бит
Метод сжатия : С потерями
Задержка видео : 11 мс.
Размер потока : 1001 Мбайт (16%)
Заголовок : |Многоголосый, закадровый|
Язык : Russian
Default : Да
Forced : Нет

Аудио #2
Идентификатор : 3
Формат : DTS
Формат/Информация : Digital Theater Systems
Режим : 16
Параметр Endianness формата : Big
Режим смешивания : Header stripping
Идентификатор кодека : A_DTS
Продолжительность : 1 ч. 32 м.
Вид битрейта : Постоянный
Битрейт : 1509 Кбит/сек
Каналы : 6 каналов
Расположение каналов : Front: L C R, Side: L R, LFE
Частота : 48,0 КГц
Битовая глубина : 16 бит
Метод сжатия : С потерями
Задержка видео : 11 мс.
Размер потока : 1001 Мбайт (16%)
Заголовок : |Одноголосый закадровый, Д. Строев|
Язык : Russian
Default : Нет
Forced : Нет

Аудио #3
Идентификатор : 4
Формат : DTS
Формат/Информация : Digital Theater Systems
Режим : 16
Параметр Endianness формата : Big
Режим смешивания : Header stripping
Идентификатор кодека : A_DTS
Продолжительность : 1 ч. 32 м.
Вид битрейта : Постоянный
Битрейт : 1509 Кбит/сек
Каналы : 6 каналов
Расположение каналов : Front: L C R, Side: L R, LFE
Частота : 48,0 КГц
Битовая глубина : 16 бит
Метод сжатия : С потерями
Задержка видео : 11 мс.
Размер потока : 1001 Мбайт (16%)
Язык : English
Default : Нет
Forced : Нет

Текст #1
Идентификатор : 5
Формат : UTF-8
Идентификатор кодека : S_TEXT/UTF8
Идентификатор кодека/Информация : UTF-8 Plain Text
Заголовок : (R5)
Язык : Russian
Default : Нет
Forced : Нет

Текст #2
Идентификатор : 6
Формат : UTF-8
Идентификатор кодека : S_TEXT/UTF8
Идентификатор кодека/Информация : UTF-8 Plain Text
Заголовок : (Д.Строев)
Язык : Russian
Default : Нет
Forced : Нет

Текст #3
Идентификатор : 7
Формат : UTF-8
Идентификатор кодека : S_TEXT/UTF8
Идентификатор кодека/Информация : UTF-8 Plain Text
Язык : English
Default : Нет
Forced : Нет

Меню
00:00:00.000 : en:Chapter 1
00:05:53.270 : en:Chapter 2
00:10:26.000 : en:Chapter 3
00:15:00.483 : en:Chapter 4
00:19:51.732 : en:Chapter 5
00:25:45.836 : en:Chapter 6
00:29:11.667 : en:Chapter 7
00:34:46.710 : en:Chapter 8
00:39:19.274 : en:Chapter 9
00:42:53.237 : en:Chapter 10
00:50:20.017 : en:Chapter 11
00:55:55.852 : en:Chapter 12
01:05:28.967 : en:Chapter 13
01:11:03.843 : en:Chapter 14
01:21:06.028 : en:Chapter 15
01:26:50.247 : en:Chapter 16


Валгалла: Сага о викинге скачать торрент


pb.wtf



Скачать Валгалла: Сага о викинге через торрент http://pic.kartinco.top/images/3/7rbsz9haql.png Скачать фильм Валгалла: Сага о викинге через торрент бесплантно в хорошем качестве Описание: 1000 год нашей эры. Немой воин по прозвищу Одноглазый, вырывается из 10-летнего рабства. Сурово расправившись со своими ... 8.7 10 10
Info! Золотая раздача, скачанное не засчитывается.
Торрент: Зарегистрирован [2013-07-12 09:42] · скачан: 195 раз
Статус: √ проверено
Размер: 6.01 GB
Как cкачать? Как скачать Валгалла: Сага о викинге через торрент | qTorrent

% Раздел Тема Автор DL S | L
Фильмы 2009 [ 1.7 GB ] Валгалла: Сага о викинге / Valhalla Rising [2009 HDRip лицензия] DEVI Скачать
1 | 0

28-11-2019 20:33  

Отключить всю рекламу на сайте

12-07-2013 09:48 Валгалла: Сага о викинге Скачать торрент  

Приятного просмотра!pb.wtf



12-07-2013 13:05 Валгалла: Сага о викинге Скачать торрент  

Автору спасибо за труды. Смотрел это кино раньше, никому ничего не навязываю - но просто зря убил время на этом фильме. Хотя по началу был в предвкушении что фильм будет бомба. Увы.pb.wtf



14-07-2013 14:38 Валгалла: Сага о викинге Скачать торрент  

Более неинтересного, занудного "исторического" фильма я еще не видал, пол дня потратил чтобы скачать это чудо, зря поверил рейтингу!pb.wtf



    Дорогой пользователь! Огромная просьба, поблагодарите релизера, оцените раздачу и оставьте свои комментарий, если Вы скачали Валгалла: Сага о викинге через торрент бесплатно! Внесите свою лепту в развитие PiratBit!
    Комментировать посты могут только пользователи прошедшие не сложную регистрацию
    Показать сообщения:    

    Валгалла: Сага о викинге через торрент
    Скачать бесплатно Валгалла: Сага о викинге
    Валгалла: Сага о викинге скачать торрент
    Валгалла: Сага о викинге смотреть онлайн
    Cкачать фильм Валгалла: Сага о викинге бесплатно
    Валгалла: Сага о викинге скачать торрент в хорошем качестве
    Валгалла: Сага о викинге смотреть онлайн бесплатно в хорошем качестве


    Вы не можете начинать темы
    Вы не можете отвечать на сообщения
    Вы не можете редактировать свои сообщения
    Вы не можете удалять свои сообщения
    Вы не можете голосовать в опросах
    Вы не можете прикреплять файлы к сообщениям
    Вы можете скачивать файлы